<?xml version="1.0" standalone="no"?>
<!DOCTYPE svg PUBLIC "-//W3C//DTD SVG 1.1//EN" "http://www.w3.org/Graphics/SVG/1.1/DTD/svg11.dtd" >
<svg xmlns="http://www.w3.org/2000/svg" xmlns:xlink="http://www.w3.org/1999/xlink" version="1.1">
<metadata></metadata>
<defs>
<font id="dejavu_sanscondensed_bold" horiz-adv-x="1282" >
<font-face units-per-em="2048" ascent="1556" descent="-492" />
<missing-glyph horiz-adv-x="641" />
<glyph unicode="&#xfb01;" horiz-adv-x="1366" d="M886 1556h325v-292h-325v292zM820 1556v-235h-178q-68 0 -94 -27.5t-26 -95.5v-78h689v-1120h-325v864h-364v-864h-325v864h-158v256h158v78q0 183 92 270.5t284 87.5h247z" />
<glyph unicode="&#xfb02;" horiz-adv-x="1366" d="M572 1556h639v-1556h-325v1321h-246q-68 0 -95 -27.5t-27 -95.5v-78h252v-256h-252v-864h-323v864h-160v256h160v78q0 183 92 270.5t285 87.5z" />
<glyph unicode="&#xfb03;" horiz-adv-x="2055" d="M818 1556v-235h-178q-68 0 -96 -27q-26 -28 -26 -96v-78h368v78q0 183 92 270q92 88 285 88h246v-235h-178q-67 0 -93 -27q-27 -28 -27 -96v-78h690v-1120h-325v864h-365v-864h-2h-323v864h-368v-864h-323v864h-160v256h160v78q0 183 92 270q92 88 285 88h246zM1576 1556 h325v-292h-325v292z" />
<glyph unicode="&#xfb04;" horiz-adv-x="2057" d="M818 1556v-235h-178q-68 0 -96 -27q-26 -28 -26 -96v-78h368v78q0 183 92 270q92 88 285 88h640v-1556h-325v1321h-247q-68 0 -95 -27q-27 -28 -27 -96v-78h253v-256h-253v-864h-323v864h-368v-864h-323v864h-160v256h160v78q0 183 92 270q92 88 285 88h246z" />
<glyph horiz-adv-x="0" />
<glyph unicode="&#xd;" horiz-adv-x="682" />
<glyph unicode=" "  horiz-adv-x="641" />
<glyph unicode="&#x09;" horiz-adv-x="641" />
<glyph unicode="&#xa0;" horiz-adv-x="641" />
<glyph unicode="!" horiz-adv-x="840" d="M258 1493h324v-573l-46 -418h-232l-46 418v573zM258 356h324v-356h-324v356z" />
<glyph unicode="&#x22;" horiz-adv-x="960" d="M785 1493v-555h-213v555h213zM389 1493v-555h-213v555h213z" />
<glyph unicode="#" horiz-adv-x="1544" d="M820 1470l-86 -385h237l87 385h199l-87 -385h249v-213h-297l-62 -274h256v-215h-303l-86 -383h-199l86 383h-237l-87 -383h-200l86 383h-251v215h295l63 274h-254v213h304l86 385h201zM922 872h-238l-63 -274h238z" />
<glyph unicode="$" d="M716 -301h-146l-1 301q-113 5 -218 28t-205 64v262q103 -59 209 -90.5t215 -35.5v311l-30 6q-215 42 -305.5 132t-90.5 259q0 179 110 279.5t315 109.5l1 231h146v-227q90 -8 180 -25t180 -44v-254q-90 42 -180 65.5t-180 28.5v-287l28 -6q229 -40 321 -133.5t92 -276.5 q0 -184 -109.5 -282.5t-331.5 -112.5v-303zM570 836v261q-64 -4 -102.5 -38.5t-38.5 -87.5q0 -59 35.5 -92.5t105.5 -42.5zM716 510v-278q78 1 117 34t39 99q0 68 -36 101.5t-120 43.5z" />
<glyph unicode="%" horiz-adv-x="1846" d="M1428 616q-64 0 -99 -61.5t-35 -175.5q0 -115 35 -176.5t99 -61.5q65 0 99.5 61.5t34.5 176.5q0 114 -35 175.5t-99 61.5zM1428 784q168 0 264 -108t96 -297t-96 -298.5t-264 -109.5q-167 0 -264 109.5t-97 298.5q0 188 97 296.5t264 108.5zM603 -29h-199l840 1549h200z M418 1520q168 0 264 -108.5t96 -297.5t-96 -298t-264 -109q-167 0 -263 109t-96 298t96 297.5t263 108.5zM418 1352q-64 0 -99 -62t-35 -176q0 -115 35 -177.5t99 -62.5q65 0 100 62.5t35 177.5q0 114 -35.5 176t-99.5 62z" />
<glyph unicode="&#x26;" horiz-adv-x="1607" d="M719 991l368 -450q48 70 72.5 157t29.5 197h280q-14 -182 -64 -324t-139 -249l264 -322h-382l-88 109q-94 -70 -198.5 -104t-221.5 -34q-237 0 -383 138.5t-146 357.5q0 146 64 258.5t210 218.5q-38 53 -56 106t-18 111q0 163 114.5 261t304.5 98q82 0 170.5 -14.5 t184.5 -43.5v-278q-84 48 -159.5 71t-147.5 23q-70 0 -108 -29.5t-38 -83.5q0 -34 22 -77.5t65 -96.5zM540 743q-58 -47 -88 -106.5t-30 -130.5q0 -115 76.5 -196t183.5 -81q60 0 112.5 20.5t97.5 61.5z" />
<glyph unicode="'" horiz-adv-x="564" d="M389 1493v-555h-213v555h213z" />
<glyph unicode="(" horiz-adv-x="842" d="M695 -270h-267q-138 247 -204 469.5t-66 441.5t66.5 443.5t203.5 469.5h267q-115 -237 -173 -463.5t-58 -447.5t57.5 -448t173.5 -465z" />
<glyph unicode=")" horiz-adv-x="842" d="M148 -270q115 238 172.5 465t57.5 448t-57.5 447.5t-172.5 463.5h267q137 -245 203 -469.5t66 -443.5t-65.5 -441.5t-203.5 -469.5h-267z" />
<glyph unicode="*" horiz-adv-x="963" d="M927 1217l-297 -173l297 -174l-68 -141l-300 184v-344h-153v344l-301 -184l-68 141l301 174l-301 173l68 141l301 -182v344h153v-344l300 182z" />
<glyph unicode="+" horiz-adv-x="1544" d="M879 1284v-524h470v-236h-470v-524h-214v524h-470v236h470v524h214z" />
<glyph unicode="," horiz-adv-x="700" d="M188 387h324v-305l-222 -373h-192l90 373v305z" />
<glyph unicode="-" horiz-adv-x="765" d="M100 735h565v-291h-565v291z" />
<glyph unicode="." horiz-adv-x="700" d="M188 387h324v-387h-324v387z" />
<glyph unicode="/" horiz-adv-x="673" d="M473 1493h200l-474 -1683h-199z" />
<glyph unicode="0" d="M848 748q0 280 -47.5 394.5t-158.5 114.5q-112 0 -159.5 -114.5t-47.5 -394.5q0 -283 47.5 -399t159.5 -116q110 0 158 116t48 399zM1194 745q0 -371 -144 -572.5t-408 -201.5q-266 0 -410 201.5t-144 572.5q0 372 144 573.5t410 201.5q264 0 408 -201.5t144 -573.5z" />
<glyph unicode="1" d="M216 266h306v965l-314 -72v262l312 72h330v-1227h306v-266h-940v266z" />
<glyph unicode="2" d="M531 283h591v-283h-976v283l490 481q66 66 97.5 129t31.5 131q0 105 -63.5 169t-168.5 64q-81 0 -177.5 -38.5t-206.5 -114.5v328q117 43 231.5 65.5t224.5 22.5q241 0 374.5 -118t133.5 -329q0 -122 -56.5 -227.5t-238.5 -282.5z" />
<glyph unicode="3" d="M859 805q135 -39 206 -135.5t71 -245.5q0 -222 -153 -337.5t-447 -115.5q-103 0 -207 18.5t-206 55.5v297q97 -54 193 -81.5t189 -27.5q138 0 211 53t73 152q0 102 -75 154.5t-222 52.5h-138v248h146q130 0 194 45.5t64 138.5q0 86 -62 133t-176 47q-84 0 -169 -21 t-170 -62v282q103 32 203.5 48t197.5 16q262 0 392 -95.5t130 -287.5q0 -131 -62 -214.5t-183 -117.5z" />
<glyph unicode="4" d="M679 1176l-380 -625h380v625zM621 1493h385v-942h192v-279h-192v-272h-327v272h-596v330z" />
<glyph unicode="5" d="M195 1493h862v-283h-585v-231q39 12 79 18.5t83 6.5q246 0 383 -136.5t137 -380.5q0 -242 -149 -379t-414 -137q-114 0 -226 24.5t-223 74.5v303q110 -70 208.5 -105t185.5 -35q126 0 198.5 68.5t72.5 185.5q0 118 -72.5 186t-198.5 68q-74 0 -159 -21.5t-182 -66.5v840z " />
<glyph unicode="6" d="M667 737q-91 0 -136.5 -65.5t-45.5 -196.5t45.5 -196.5t136.5 -65.5q92 0 137.5 65.5t45.5 196.5t-45.5 196.5t-137.5 65.5zM1095 1454v-276q-85 45 -160.5 66.5t-147.5 21.5q-155 0 -241.5 -95.5t-100.5 -283.5q59 49 128.5 73.5t150.5 24.5q207 0 333.5 -134 t126.5 -351q0 -240 -141.5 -384.5t-379.5 -144.5q-262 0 -405.5 196.5t-143.5 557.5q0 370 168 581.5t460 211.5q93 0 180.5 -16t172.5 -48z" />
<glyph unicode="7" d="M123 1493h1013v-217l-524 -1276h-338l496 1210h-647v283z" />
<glyph unicode="8" d="M642 668q-98 0 -150 -59t-52 -169t52 -168.5t150 -58.5q96 0 147.5 58.5t51.5 168.5q0 111 -51.5 169.5t-147.5 58.5zM389 795q-123 41 -185 126t-62 212q0 189 127 288t373 99q244 0 370.5 -98.5t126.5 -288.5q0 -127 -62.5 -212t-184.5 -126q137 -42 206.5 -136.5 t69.5 -238.5q0 -222 -132.5 -335.5t-393.5 -113.5q-262 0 -396 113.5t-134 335.5q0 144 70 238.5t207 136.5zM470 1094q0 -89 44.5 -137t127.5 -48q81 0 125 48t44 137t-44 136.5t-125 47.5q-83 0 -127.5 -48t-44.5 -136z" />
<glyph unicode="9" d="M184 33v276q83 -43 158.5 -64.5t149.5 -21.5q155 0 241.5 95.5t101.5 283.5q-61 -50 -130.5 -75t-150.5 -25q-206 0 -332.5 133.5t-126.5 351.5q0 241 141 386t378 145q263 0 407 -197t144 -557q0 -370 -168.5 -581.5t-461.5 -211.5q-95 0 -181.5 15.5t-169.5 46.5z M612 752q91 0 137 65.5t46 196.5q0 130 -46 196t-137 66t-137 -66t-46 -196q0 -131 46 -196.5t137 -65.5z" />
<glyph unicode=":" horiz-adv-x="737" d="M206 1120h325v-387h-325v387zM206 387h325v-387h-325v387z" />
<glyph unicode=";" horiz-adv-x="737" d="M206 387h325v-305l-223 -373h-192l90 373v305zM206 1120h325v-387h-325v387z" />
<glyph unicode="&#x3c;" horiz-adv-x="1544" d="M1349 973l-867 -332l867 -330v-250l-1154 463v236l1154 463v-250z" />
<glyph unicode="=" horiz-adv-x="1544" d="M195 987h1154v-235h-1154v235zM195 532h1154v-237h-1154v237z" />
<glyph unicode="&#x3e;" horiz-adv-x="1544" d="M195 973v250l1154 -463v-236l-1154 -463v250l869 330z" />
<glyph unicode="?" horiz-adv-x="1069" d="M638 504h-325v49q0 82 30 145.5t125 161.5l58 58q51 52 75 98t24 92q0 70 -43.5 109.5t-120.5 39.5q-73 0 -157.5 -33.5t-176.5 -99.5v314q109 42 199 62t174 20q219 0 334.5 -99.5t115.5 -290.5q0 -98 -35.5 -175.5t-119.5 -166.5l-58 -57q-61 -62 -80 -99.5t-19 -82.5 v-45zM313 356h325v-356h-325v356z" />
<glyph unicode="@" horiz-adv-x="1843" d="M748 539q0 -123 47 -194t128 -71t128.5 71.5t47.5 193.5q0 121 -48 191.5t-129 70.5q-80 0 -127 -70.5t-47 -191.5zM1117 238q-27 -71 -87 -110.5t-140 -39.5q-155 0 -251.5 124.5t-96.5 324.5t97 325t251 125q80 0 140 -40t87 -111v131h188v-693q112 19 175.5 119.5 t63.5 257.5q0 100 -26 187.5t-79 160.5q-85 122 -213.5 188t-277.5 66q-105 0 -200.5 -30.5t-175.5 -89.5q-134 -98 -208 -253.5t-74 -336.5q0 -149 48 -279.5t139 -230.5q90 -98 206.5 -149.5t248.5 -51.5q114 0 227.5 47t193.5 127l96 -162q-113 -97 -245.5 -148.5 t-269.5 -51.5q-166 0 -314 65.5t-263 190.5t-175 289.5t-60 353.5q0 182 61 347t174 290q114 124 264.5 192t312.5 68q202 0 366.5 -85.5t275.5 -246.5q67 -98 102 -212.5t35 -240.5q0 -271 -147 -421t-414 -150h-35v154z" />
<glyph unicode="A" horiz-adv-x="1426" d="M985 272h-542l-86 -272h-348l498 1493h413l498 -1493h-349zM529 549h368l-183 594z" />
<glyph unicode="B" horiz-adv-x="1404" d="M707 915q82 0 124.5 40t42.5 118q0 77 -42.5 117.5t-124.5 40.5h-191v-316h191zM719 262q105 0 157.5 49t52.5 148q0 97 -52.5 145.5t-157.5 48.5h-203v-391h203zM1041 799q112 -36 173 -133t61 -238q0 -216 -131.5 -322t-399.5 -106h-575v1493h520q280 0 405.5 -94 t125.5 -301q0 -109 -45.5 -185.5t-133.5 -113.5z" />
<glyph unicode="C" horiz-adv-x="1352" d="M1235 82q-96 -55 -199.5 -83t-215.5 -28q-336 0 -532 208.5t-196 565.5q0 358 196 566.5t532 208.5q112 0 215.5 -28t199.5 -83v-309q-97 73 -190.5 107t-196.5 34q-186 0 -292 -132t-106 -364q0 -231 106 -363t292 -132q103 0 196.5 34t190.5 107v-309z" />
<glyph unicode="D" horiz-adv-x="1530" d="M516 1202v-911h124q212 0 324 117t112 340q0 222 -111.5 338t-324.5 116h-124zM169 1493h366q306 0 455.5 -48.5t256.5 -164.5q95 -101 141 -233t46 -299q0 -169 -46 -301.5t-141 -233.5q-108 -116 -259 -164.5t-453 -48.5h-366v1493z" />
<glyph unicode="E" horiz-adv-x="1259" d="M169 1493h935v-291h-588v-278h553v-291h-553v-342h608v-291h-955v1493z" />
<glyph unicode="F" horiz-adv-x="1259" d="M169 1493h935v-291h-588v-278h553v-291h-553v-633h-347v1493z" />
<glyph unicode="G" horiz-adv-x="1512" d="M1377 111q-130 -70 -269.5 -105t-287.5 -35q-336 0 -532 208.5t-196 565.5q0 361 199.5 568t547.5 207q134 0 257 -28t232 -83v-309q-113 71 -224 106t-223 35q-207 0 -319 -128.5t-112 -367.5q0 -237 108 -366t307 -129q54 0 100.5 7.5t82.5 23.5v290h-211v258h540v-718 z" />
<glyph unicode="H" horiz-adv-x="1542" d="M169 1493h347v-569h511v569h346v-1493h-346v633h-511v-633h-347v1493z" />
<glyph unicode="I" horiz-adv-x="685" d="M169 1493h347v-1493h-347v1493z" />
<glyph unicode="J" horiz-adv-x="685" d="M169 1493h347v-1348q0 -279 -136.5 -417t-412.5 -138h-71v291h54q108 0 163.5 67t55.5 197v1348z" />
<glyph unicode="K" horiz-adv-x="1428" d="M169 1493h347v-545l499 545h403l-648 -707l714 -786h-434l-534 588v-588h-347v1493z" />
<glyph unicode="L" horiz-adv-x="1174" d="M169 1493h347v-1202h608v-291h-955v1493z" />
<glyph unicode="M" horiz-adv-x="1834" d="M169 1493h441l306 -799l308 799h440v-1493h-328v1092l-309 -805h-220l-309 805v-1092h-329v1493z" />
<glyph unicode="N" horiz-adv-x="1542" d="M169 1493h387l489 -1024v1024h328v-1493h-387l-488 1024v-1024h-329v1493z" />
<glyph unicode="O" horiz-adv-x="1566" d="M783 1241q-158 0 -245.5 -130t-87.5 -366q0 -235 87.5 -365t245.5 -130q159 0 246.5 130t87.5 365q0 236 -87.5 366t-246.5 130zM783 1520q324 0 507.5 -206t183.5 -569q0 -362 -183.5 -568t-507.5 -206q-323 0 -507 206t-184 568q0 363 184 569t507 206z" />
<glyph unicode="P" horiz-adv-x="1350" d="M169 1493h575q257 0 394 -126.5t137 -360.5q0 -235 -137 -361.5t-394 -126.5h-228v-518h-347v1493zM516 1214v-417h191q101 0 156 54.5t55 154.5t-55 154t-156 54h-191z" />
<glyph unicode="Q" horiz-adv-x="1566" d="M820 -27h-27q-332 0 -516.5 204t-184.5 568q0 363 184 569t507 206q327 0 509 -204t182 -571q0 -252 -96.5 -434t-278.5 -274l271 -336h-330zM783 1241q-158 0 -245.5 -130t-87.5 -366q0 -240 85.5 -367.5t247.5 -127.5q159 0 246.5 130t87.5 365q0 236 -87.5 366 t-246.5 130z" />
<glyph unicode="R" horiz-adv-x="1419" d="M662 831q108 0 155.5 45t47.5 148q0 102 -47.5 146t-155.5 44h-146v-383h146zM516 565v-565h-347v1493h529q266 0 389.5 -99t123.5 -313q0 -148 -64 -243t-194 -140q71 -18 127.5 -81.5t113.5 -192.5l188 -424h-369l-163 371q-50 112 -101 153t-135 41h-98z" />
<glyph unicode="S" horiz-adv-x="1327" d="M1104 1446v-316q-110 55 -215.5 83t-199.5 28q-124 0 -183.5 -38t-59.5 -118q0 -60 40 -93.5t146 -57.5l147 -33q225 -50 319 -152t94 -290q0 -247 -131.5 -367.5t-402.5 -120.5q-128 0 -256.5 27t-257.5 80v325q129 -76 249 -114.5t232 -38.5q113 0 173.5 42t60.5 120 q0 70 -41 108t-164 68l-134 33q-201 48 -294.5 153t-93.5 283q0 223 130 343t372 120q111 0 228 -18.5t242 -55.5z" />
<glyph unicode="T" horiz-adv-x="1257" d="M9 1493h1238v-291h-445v-1202h-347v1202h-446v291z" />
<glyph unicode="U" horiz-adv-x="1496" d="M169 1493h347v-895q0 -185 54.5 -264.5t177.5 -79.5q124 0 178.5 79.5t54.5 264.5v895h347v-895q0 -317 -143.5 -472t-436.5 -155t-436 155t-143 472v895z" />
<glyph unicode="V" horiz-adv-x="1426" d="M9 1493h348l357 -1102l355 1102h349l-498 -1493h-413z" />
<glyph unicode="W" horiz-adv-x="2033" d="M55 1493h332l232 -1085l231 1085h334l230 -1085l232 1085h330l-317 -1493h-400l-244 1135l-241 -1135h-400z" />
<glyph unicode="X" horiz-adv-x="1421" d="M918 762l466 -762h-361l-314 510l-311 -510h-363l466 762l-448 731h362l294 -481l294 481h363z" />
<glyph unicode="Y" horiz-adv-x="1334" d="M-18 1493h379l306 -532l306 532h380l-512 -864v-629h-347v629z" />
<glyph unicode="Z" horiz-adv-x="1336" d="M104 1493h1129v-233l-721 -969h742v-291h-1171v233l721 969h-700v291z" />
<glyph unicode="[" horiz-adv-x="842" d="M158 1556h559v-225h-253v-1376h253v-225h-559v1826z" />
<glyph unicode="\" horiz-adv-x="673" d="M473 -190l-473 1683h199l474 -1683h-200z" />
<glyph unicode="]" horiz-adv-x="842" d="M684 -270h-559v225h253v1376h-253v225h559v-1826z" />
<glyph unicode="^" horiz-adv-x="1544" d="M883 1493l475 -557h-217l-369 301l-368 -301h-218l476 557h221z" />
<glyph unicode="_" horiz-adv-x="921" d="M922 -293v-190h-922v190h922z" />
<glyph unicode="`" horiz-adv-x="921" d="M339 1638l254 -376h-176l-332 376h254z" />
<glyph unicode="a" horiz-adv-x="1243" d="M607 504q-101 0 -152 -38t-51 -112q0 -68 41 -106.5t114 -38.5q91 0 153 72.5t62 181.5v41h-167zM1099 639v-639h-325v166q-65 -102 -146 -148.5t-197 -46.5q-157 0 -254.5 101.5t-97.5 263.5q0 197 122 289t383 92h190v28q0 85 -60.5 124.5t-187.5 39.5q-104 0 -193 -23 t-166 -69v273q104 28 208.5 42.5t208.5 14.5q273 0 394 -119.5t121 -388.5z" />
<glyph unicode="b" horiz-adv-x="1319" d="M691 231q104 0 158.5 84t54.5 244t-54.5 244t-158.5 84q-103 0 -158.5 -84.5t-55.5 -243.5t55.5 -243.5t158.5 -84.5zM477 956q67 98 148 144.5t186 46.5q186 0 306 -164.5t120 -423.5t-120 -423.5t-306 -164.5q-105 0 -186 46.5t-148 144.5v-162h-322v1556h322v-600z " />
<glyph unicode="c" horiz-adv-x="1092" d="M969 1085v-292q-65 50 -131.5 74t-137.5 24q-135 0 -210 -87.5t-75 -244.5t75 -244.5t210 -87.5q76 0 144 25t125 74v-293q-75 -31 -153 -46.5t-156 -15.5q-273 0 -427 155.5t-154 432.5t154 432.5t427 155.5q79 0 156 -15.5t153 -46.5z" />
<glyph unicode="d" horiz-adv-x="1319" d="M841 956v600h324v-1556h-324v162q-67 -99 -147 -145t-186 -46q-186 0 -305.5 164.5t-119.5 423.5t119.5 423.5t305.5 164.5q105 0 185.5 -46.5t147.5 -144.5zM628 231q104 0 158.5 84t54.5 244t-54.5 244t-158.5 84q-102 0 -156.5 -84t-54.5 -244t54.5 -244t156.5 -84z " />
<glyph unicode="e" horiz-adv-x="1250" d="M1161 563v-102h-753q11 -126 81.5 -189t196.5 -63q102 0 208.5 33.5t218.5 101.5v-276q-114 -48 -228.5 -72.5t-228.5 -24.5q-274 0 -425.5 154.5t-151.5 433.5q0 274 149 431t410 157q238 0 380.5 -159t142.5 -425zM830 682q0 102 -53.5 164.5t-140.5 62.5 q-93 0 -151.5 -58.5t-73.5 -168.5h419z" />
<glyph unicode="f" horiz-adv-x="801" d="M818 1556v-235h-178q-68 0 -95 -27.5t-27 -95.5v-78h275v-256h-275v-864h-323v864h-160v256h160v78q0 183 92 270.5t285 87.5h246z" />
<glyph unicode="g" horiz-adv-x="1319" d="M841 190q-67 -98 -147 -144t-186 -46q-184 0 -304.5 161.5t-120.5 411.5q0 251 120.5 411.5t304.5 160.5q106 0 186 -46t147 -145v166h324v-1007q0 -270 -153.5 -412.5t-445.5 -142.5q-94 0 -182.5 16t-177.5 49v279q85 -54 166 -80.5t163 -26.5q158 0 232 77t74 241v77z M628 887q-100 0 -155.5 -82t-55.5 -232q0 -154 54 -233.5t157 -79.5q101 0 157 82t56 231q0 150 -56 232t-157 82z" />
<glyph unicode="h" horiz-adv-x="1312" d="M1168 682v-682h-324v111v409q0 147 -6 202t-20 81q-19 35 -51.5 54.5t-73.5 19.5q-101 0 -158.5 -86.5t-57.5 -239.5v-551h-322v1556h322v-600q73 98 155 144.5t181 46.5q174 0 264.5 -119t90.5 -346z" />
<glyph unicode="i" horiz-adv-x="631" d="M155 1120h322v-1120h-322v1120zM155 1556h322v-292h-322v292z" />
<glyph unicode="j" horiz-adv-x="631" d="M155 1120h322v-1100q0 -225 -97 -343.5t-282 -118.5h-159v235h56q91 0 125.5 46t34.5 181v1100zM155 1556h322v-292h-322v292z" />
<glyph unicode="k" horiz-adv-x="1225" d="M155 1556h322v-847l371 411h374l-492 -514l531 -606h-391l-393 467v-467h-322v1556z" />
<glyph unicode="l" horiz-adv-x="631" d="M155 1556h322v-1556h-322v1556z" />
<glyph unicode="m" horiz-adv-x="1920" d="M1089 934q61 104 145 158.5t185 54.5q174 0 265 -119t91 -346v-682h-324v584q1 13 1.5 27t0.5 40q0 119 -31.5 172.5t-102.5 53.5q-91 0 -141 -84t-52 -243v-550h-324v584q0 186 -29 239.5t-103 53.5q-92 0 -142.5 -84.5t-50.5 -241.5v-551h-324v1120h324v-164 q59 95 136 143t170 48q104 0 184.5 -56t121.5 -157z" />
<glyph unicode="n" horiz-adv-x="1312" d="M1168 682v-682h-324v111v411q0 145 -6 200t-20 81q-19 35 -51.5 54.5t-73.5 19.5q-101 0 -158.5 -86.5t-57.5 -239.5v-551h-322v1120h322v-164q73 98 155 144.5t181 46.5q174 0 264.5 -119t90.5 -346z" />
<glyph unicode="o" horiz-adv-x="1266" d="M634 891q-107 0 -163 -85.5t-56 -246.5t56 -246.5t163 -85.5q106 0 161.5 85.5t55.5 246.5t-55.5 246.5t-161.5 85.5zM634 1147q261 0 407 -156t146 -432t-146 -432t-407 -156q-260 0 -407.5 156t-147.5 432t147.5 432t407.5 156z" />
<glyph unicode="p" horiz-adv-x="1319" d="M477 162v-588h-322v1546h322v-164q67 98 148 144.5t186 46.5q186 0 306 -164.5t120 -423.5t-120 -423.5t-306 -164.5q-105 0 -186 46.5t-148 144.5zM691 887q-103 0 -158.5 -84.5t-55.5 -243.5t55.5 -243.5t158.5 -84.5q104 0 158.5 84t54.5 244t-54.5 244t-158.5 84z " />
<glyph unicode="q" horiz-adv-x="1319" d="M628 887q-102 0 -156.5 -84t-54.5 -244t54.5 -244t156.5 -84q104 0 158.5 84t54.5 244t-54.5 244t-158.5 84zM841 162q-67 -99 -147 -145t-186 -46q-186 0 -305.5 164.5t-119.5 423.5t119.5 422.5t305.5 163.5q106 0 186 -46t147 -145v166h324v-1546h-324v588z" />
<glyph unicode="r" horiz-adv-x="909" d="M904 815q-43 22 -84.5 32.5t-84.5 10.5q-124 0 -191 -88.5t-67 -253.5v-516h-322v1120h322v-184q62 110 142.5 160.5t193.5 50.5q16 0 35 -1.5t55 -6.5z" />
<glyph unicode="s" horiz-adv-x="1097" d="M942 1085v-272q-103 48 -199.5 72t-181.5 24q-92 0 -136.5 -25.5t-44.5 -78.5q0 -43 33.5 -66t121.5 -34l56 -9q248 -35 333.5 -115t85.5 -251q0 -179 -119 -269t-355 -90q-100 0 -206.5 17.5t-218.5 52.5v272q96 -52 197.5 -78t205.5 -26q94 0 142 29t48 86 q0 48 -33 71.5t-131 36.5l-57 8q-215 30 -301.5 111t-86.5 246q0 178 110 264t337 86q89 0 187 -15t213 -47z" />
<glyph unicode="t" horiz-adv-x="881" d="M507 1438v-318h332v-256h-332v-475q0 -78 27.5 -105.5t110.5 -27.5h166v-256h-276q-191 0 -271 88.5t-80 300.5v475h-160v256h160v318h323z" />
<glyph unicode="u" horiz-adv-x="1312" d="M144 436v684h324v-112q0 -91 -1 -228.5t-1 -183.5q0 -135 6.5 -194.5t21.5 -86.5q20 -35 52 -54t73 -19q101 0 158.5 86t57.5 239v553h322v-1120h-322v162q-73 -98 -154.5 -144.5t-179.5 -46.5q-174 0 -265.5 119t-91.5 346z" />
<glyph unicode="v" horiz-adv-x="1201" d="M28 1120h322l251 -774l250 774h323l-396 -1120h-354z" />
<glyph unicode="w" horiz-adv-x="1702" d="M65 1120h313l169 -772l170 772h269l170 -764l170 764h313l-266 -1120h-351l-171 770l-169 -770h-352z" />
<glyph unicode="x" horiz-adv-x="1188" d="M410 573l-364 547h341l206 -332l209 332h341l-364 -545l382 -575h-341l-227 354l-224 -354h-341z" />
<glyph unicode="y" horiz-adv-x="1201" d="M22 1120h323l271 -760l230 760h322l-424 -1226q-64 -187 -149 -261.5t-224 -74.5h-187v235h101q82 0 119.5 29t58.5 104l9 31z" />
<glyph unicode="z" horiz-adv-x="1072" d="M105 1120h880v-250l-531 -614h531v-256h-902v250l531 614h-509v256z" />
<glyph unicode="{" horiz-adv-x="1312" d="M1082 -109v-225h-196q-196 0 -286 88t-90 281v192q0 150 -48.5 208.5t-176.5 58.5h-55v223h55q128 0 176.5 58t48.5 208v205q0 193 90 280.5t286 87.5h196v-225h-62q-127 0 -165.5 -43.5t-38.5 -185.5v-166q0 -157 -40.5 -228t-139.5 -96q100 -27 140 -98t40 -227v-166 q0 -143 38.5 -186.5t165.5 -43.5h62z" />
<glyph unicode="|" horiz-adv-x="673" d="M438 1565v-2048h-204v2048h204z" />
<glyph unicode="}" horiz-adv-x="1312" d="M230 -109h63q126 0 164.5 43.5t38.5 186.5v166q0 156 40.5 227t140.5 98q-100 25 -140.5 96t-40.5 228v166q0 142 -38.5 185.5t-164.5 43.5h-63v225h196q196 0 286 -87.5t90 -280.5v-205q0 -150 48.5 -208t176.5 -58h55v-223h-55q-128 0 -176.5 -58.5t-48.5 -208.5v-192 q0 -193 -90 -281t-286 -88h-196v225z" />
<glyph unicode="~" horiz-adv-x="1544" d="M1349 850v-244q-95 -80 -175.5 -114.5t-167.5 -34.5q-96 0 -225 58q-12 6 -20 9q-6 3 -19 9q-140 61 -224 61q-80 0 -157 -38.5t-166 -121.5v244q97 80 177 114.5t166 34.5q96 0 225 -58q14 -6 20 -9t20 -9q139 -61 224 -61q77 0 153 37.5t169 122.5z" />
<glyph unicode="&#xa1;" horiz-adv-x="840" d="M258 -373v573l46 418h232l46 -418v-573h-324zM258 764v356h324v-356h-324z" />
<glyph unicode="&#xa2;" d="M632 858q-70 -44 -105 -117.5t-35 -181.5q0 -109 35 -183t105 -116v598zM1045 1085v-292q-67 48 -131 73t-123 25h-13v-663q80 1 148 26t119 72v-293q-75 -30 -140.5 -46t-117.5 -16h-9v-284h-146v288q-236 40 -355.5 191t-119.5 409q0 244 121.5 389.5t353.5 180.5v287 h146v-287q64 -3 130.5 -17.5t136.5 -42.5z" />
<glyph unicode="&#xa3;" d="M1119 1466v-286q-63 39 -130 58t-136 19q-106 0 -157 -62.5t-51 -193.5v-170h336v-239h-336v-326h485v-266h-1018v266h205v326h-175v239h175v170q0 271 114 395t362 124q83 0 164.5 -13.5t161.5 -40.5z" />
<glyph unicode="&#xa4;" horiz-adv-x="1172" d="M391 268l-187 -207l-137 154l186 207q-25 49 -38 102.5t-13 116.5t14 117t40 100l-188 205l138 154l186 -207q44 30 92.5 44.5t103.5 14.5q48 0 97 -13.5t100 -41.5l186 207l137 -154l-186 -207q26 -55 38.5 -110t12.5 -109q0 -63 -13 -115.5t-40 -99.5l186 -207 l-138 -153l-187 206q-41 -30 -89 -44.5t-104 -14.5q-52 0 -101 13.5t-96 41.5zM588 422q82 0 139.5 63.5t57.5 155.5t-57.5 155.5t-139.5 63.5t-139.5 -63.5t-57.5 -155.5q0 -93 56.5 -156t140.5 -63z" />
<glyph unicode="&#xa5;" d="M1222 416h-409v-416h-343v416h-409v194h409v66l-44 86h-365v192h263l-302 539h360l260 -461l259 461h360l-303 -539h264v-192h-365l-44 -86v-66h409v-194z" />
<glyph unicode="&#xa6;" horiz-adv-x="673" d="M438 1432v-758h-204v758h204zM438 408v-758h-204v758h204z" />
<glyph unicode="&#xa7;" horiz-adv-x="921" d="M796 1462v-227q-89 39 -160 58.5t-122 19.5q-68 0 -102 -24.5t-34 -71.5q0 -67 169 -146q24 -11 35 -16q189 -89 260.5 -175.5t71.5 -211.5q0 -117 -50.5 -196.5t-156.5 -127.5q70 -41 103.5 -97.5t33.5 -129.5q0 -145 -109 -228.5t-300 -83.5q-77 0 -158.5 14.5 t-172.5 43.5v237q103 -41 185 -62.5t133 -21.5q59 0 94 25t35 65q0 70 -162 144q-33 14 -50 22q-182 87 -254 176.5t-72 219.5q0 104 49.5 181t151.5 128q-67 51 -96.5 106.5t-29.5 130.5q0 144 103 225t284 81q76 0 157 -14.5t164 -43.5zM391 856q-62 -28 -92 -66t-30 -88 q0 -67 55.5 -116t219.5 -115q58 23 89.5 62.5t31.5 91.5q0 67 -62 120t-212 111z" />
<glyph unicode="&#xa8;" horiz-adv-x="921" d="M177 1585h212v-246h-212v246zM533 1585h211v-246h-211v246z" />
<glyph unicode="&#xa9;" horiz-adv-x="1843" d="M1191 1126v-215q-52 37 -101.5 54.5t-101.5 17.5q-102 0 -159 -64t-57 -178q0 -115 57 -178t159 -63q58 0 109.5 18t93.5 53v-213q-59 -22 -118 -33.5t-115 -11.5q-189 0 -303.5 117t-114.5 311q0 195 114.5 311.5t303.5 116.5q63 0 120.5 -10.5t112.5 -32.5zM922 1331 q-109 0 -202.5 -43.5t-172.5 -130.5q-78 -87 -117 -190.5t-39 -225.5q0 -121 39 -224.5t117 -190.5q78 -86 172 -129t203 -43q110 0 203 42.5t171 129.5t117.5 190.5t39.5 224.5q0 122 -39.5 225.5t-117.5 190.5q-79 88 -172.5 131t-201.5 43zM922 1485q136 0 254.5 -55 t216.5 -164t146.5 -240t48.5 -285q0 -152 -48.5 -282.5t-146.5 -239.5t-216.5 -164t-254.5 -55q-137 0 -255.5 55t-216.5 164t-146.5 239.5t-48.5 282.5q0 154 48.5 285t146.5 240t216.5 164t255.5 55z" />
<glyph unicode="&#xaa;" horiz-adv-x="1039" d="M158 573h732v-200h-732v200zM579 1081q-120 0 -167 -26t-47 -88q0 -51 30 -80t82 -29q80 0 131.5 57t51.5 144v22h-81zM901 1165v-448h-221v127q-49 -76 -112 -112t-148 -36q-130 0 -204 67t-74 183q0 141 94.5 207t298.5 66h123v20q0 56 -40 85.5t-117 29.5 q-78 0 -152.5 -17.5t-146.5 -52.5v180q83 28 159 42t144 14q201 0 298.5 -87.5t97.5 -267.5z" />
<glyph unicode="&#xab;" horiz-adv-x="1190" d="M586 1063v-242l-264 -221l264 -221v-242l-444 369v186zM1017 1063v-242l-263 -221l263 -221v-242l-444 369v186z" />
<glyph unicode="&#xac;" horiz-adv-x="1544" d="M195 909h1154v-622h-211v385h-943v237z" />
<glyph unicode="&#xad;" horiz-adv-x="765" d="M100 735h565v-291h-565v291z" />
<glyph unicode="&#xae;" horiz-adv-x="1843" d="M922 1331q-109 0 -202.5 -43.5t-172.5 -130.5q-78 -87 -117 -190.5t-39 -225.5q0 -121 39 -224.5t117 -190.5q78 -86 172 -129t203 -43q110 0 203 42.5t171 129.5t117.5 190.5t39.5 224.5q0 122 -39.5 225.5t-117.5 190.5q-79 88 -172.5 131t-201.5 43zM870 1036h-31 v-207h31q70 0 106 26.5t36 78.5t-35 77t-107 25zM904 1174q158 0 236.5 -59.5t78.5 -180.5q0 -86 -47.5 -142t-133.5 -73q37 -22 68.5 -62t58.5 -98l99 -221h-206l-96 213q-34 78 -60 110.5t-52 32.5h-11v-356h-192v836h257zM922 1485q136 0 254.5 -55t216.5 -164 t146.5 -240t48.5 -285q0 -152 -48.5 -282.5t-146.5 -239.5t-216.5 -164t-254.5 -55q-137 0 -255.5 55t-216.5 164t-146.5 239.5t-48.5 282.5q0 154 48.5 285t146.5 240t216.5 164t255.5 55z" />
<glyph unicode="&#xaf;" horiz-adv-x="921" d="M177 1556h567v-188h-567v188z" />
<glyph unicode="&#xb0;" horiz-adv-x="921" d="M461 1372q-65 0 -110 -50t-45 -122t44.5 -121t110.5 -49q65 0 110 49.5t45 120.5q0 72 -45.5 122t-109.5 50zM461 1534q59 0 114 -25.5t98 -72.5q43 -48 65 -108t22 -128q0 -67 -22 -127.5t-63 -105.5q-43 -48 -99 -73.5t-117 -25.5q-127 0 -213 95.5t-86 236.5t87 237.5 t214 96.5z" />
<glyph unicode="&#xb1;" horiz-adv-x="1544" d="M879 1284v-354h470v-236h-470v-354h-214v354h-470v236h470v354h214zM195 238h1154v-238h-1154v238z" />
<glyph unicode="&#xb2;" horiz-adv-x="807" d="M371 836h333v-168h-606v153l282 266q55 53 78.5 93t23.5 80q0 50 -33 81t-86 31q-56 0 -120 -22.5t-139 -69.5v186q78 27 151 40.5t141 13.5q142 0 223 -64.5t81 -175.5q0 -72 -32 -132.5t-123 -146.5z" />
<glyph unicode="&#xb3;" horiz-adv-x="807" d="M533 1120q83 -18 128.5 -73t45.5 -136q0 -129 -89 -193.5t-270 -64.5q-73 0 -139.5 11.5t-127.5 33.5v174q59 -36 117 -54.5t112 -18.5q85 0 132 32t47 91q0 64 -48.5 94.5t-150.5 30.5h-67v137h76q88 0 128.5 23.5t40.5 74.5q0 45 -35 67.5t-107 22.5q-47 0 -102.5 -13 t-118.5 -40v166q59 17 127 26t146 9q150 0 230 -56t80 -161q0 -69 -40.5 -117t-114.5 -66z" />
<glyph unicode="&#xb4;" horiz-adv-x="921" d="M582 1638h255l-332 -376h-177z" />
<glyph unicode="&#xb5;" horiz-adv-x="1356" d="M157 -428v1548h325v-651q0 -116 45 -172.5t136 -56.5q93 0 138 56.5t45 172.5v651h324v-749q0 -71 15 -99t50 -28q16 0 31 5t32 17v-250q-48 -23 -90 -34t-82 -11q-80 0 -131 37.5t-82 120.5q-43 -79 -103.5 -118.5t-140.5 -39.5q-67 0 -114 23.5t-73 71.5v-494h-325z " />
<glyph unicode="&#xb6;" horiz-adv-x="1172" d="M544 1493h468v-1690h-171v1543h-171v-1543h-170v846q-184 25 -284 134.5t-100 287.5q0 190 117 306t311 116z" />
<glyph unicode="&#xb7;" horiz-adv-x="700" d="M188 905h324v-387h-324v387z" />
<glyph unicode="&#xb8;" horiz-adv-x="921" d="M542 0q52 -62 77 -115t25 -100q0 -95 -55.5 -140.5t-170.5 -45.5q-43 0 -88.5 6.5t-92.5 19.5l-1 152q45 -16 82.5 -23.5t66.5 -7.5q52 0 81.5 23t29.5 63q0 26 -19.5 67t-59.5 101h125z" />
<glyph unicode="&#xb9;" horiz-adv-x="807" d="M127 825h186v521l-202 -52v160l206 49h203v-678h184v-157h-577v157z" />
<glyph unicode="&#xba;" horiz-adv-x="1039" d="M520 1520q192 0 303 -111t111 -301t-110.5 -300t-303.5 -110q-192 0 -303.5 110t-111.5 300t111.5 301t303.5 111zM149 573h741v-200h-741v200zM520 1350q-75 0 -116 -63t-41 -179t41 -178t116 -62t116 62t41 178t-41 179t-116 63z" />
<glyph unicode="&#xbb;" horiz-adv-x="1190" d="M605 1063l443 -371v-186l-443 -369v242l263 221l-263 221v242zM174 1063l442 -371v-186l-442 -369v242l262 221l-262 221v242z" />
<glyph unicode="&#xbc;" horiz-adv-x="1908" d="M1433 640l-215 -323h215v323zM1417 835h223v-518h124v-155h-124v-162h-207v162h-352v168zM660 -29h-201l840 1549h202zM106 825h186v521l-202 -52v160l206 49h203v-678h184v-157h-577v157z" />
<glyph unicode="&#xbd;" horiz-adv-x="1908" d="M660 -29h-201l840 1549h202zM1486 168h333v-168h-606v153l282 266q55 53 78.5 93t23.5 80q0 50 -33 81t-86 31q-56 0 -120 -22.5t-139 -69.5v186q78 27 151 40.5t141 13.5q142 0 223 -64.5t81 -175.5q0 -72 -32 -132.5t-123 -146.5zM106 825h186v521l-202 -52v160l206 49 h203v-678h184v-157h-577v157z" />
<glyph unicode="&#xbe;" horiz-adv-x="1908" d="M1433 640l-215 -323h215v323zM1417 835h223v-518h124v-155h-124v-162h-207v162h-352v168zM660 -29h-201l840 1549h202zM546 1120q83 -18 128.5 -73t45.5 -136q0 -129 -89 -193.5t-270 -64.5q-73 0 -139.5 11.5t-127.5 33.5v174q59 -36 117 -54.5t112 -18.5q85 0 132 32 t47 91q0 64 -48.5 94.5t-150.5 30.5h-67v137h76q88 0 128.5 23.5t40.5 74.5q0 45 -35 67.5t-107 22.5q-47 0 -102.5 -13t-118.5 -40v166q59 17 127 26t146 9q150 0 230 -56t80 -161q0 -69 -40.5 -117t-114.5 -66z" />
<glyph unicode="&#xbf;" horiz-adv-x="1069" d="M438 614h325v-49q0 -81 -29 -144t-127 -163l-58 -58q-50 -51 -73.5 -97t-23.5 -93q0 -70 43 -110t121 -40q72 0 157.5 34t176.5 100v-314q-108 -42 -199 -62t-174 -20q-220 0 -335 99.5t-115 289.5q0 99 35 176.5t120 165.5l57 58q61 61 80 99t19 83v45zM763 764h-325 v356h325v-356z" />
<glyph unicode="&#xc0;" horiz-adv-x="1426" d="M985 272h-542l-86 -272h-348l498 1493h413l498 -1493h-349zM529 549h368l-183 594zM645 1899l179 -264h-177l-256 264h254z" />
<glyph unicode="&#xc1;" horiz-adv-x="1426" d="M985 272h-542l-86 -272h-348l498 1493h413l498 -1493h-349zM529 549h368l-183 594zM737 1899h255l-257 -264h-176z" />
<glyph unicode="&#xc2;" horiz-adv-x="1426" d="M985 272h-542l-86 -272h-348l498 1493h413l498 -1493h-349zM529 549h368l-183 594zM575 1899h277l200 -264h-160l-179 161l-179 -161h-160z" />
<glyph unicode="&#xc3;" horiz-adv-x="1426" d="M985 272h-542l-86 -272h-348l498 1493h413l498 -1493h-349zM529 549h368l-183 594zM715 1690l-50 35l-9 6q-41 26 -66 26q-29 0 -47 -30t-18 -80v-6h-125q0 5 1 15t1 15q0 106 48 171t126 65q34 0 67 -12.5t68 -36.5l53 -39q19 -14 36.5 -21.5t32.5 -7.5q33 0 50.5 30 t17.5 87h125q0 -6 -0.5 -16t-0.5 -15q0 -106 -48.5 -170.5t-126.5 -64.5q-34 0 -65.5 11t-69.5 38z" />
<glyph unicode="&#xc4;" horiz-adv-x="1426" d="M985 272h-542l-86 -272h-348l498 1493h413l498 -1493h-349zM529 549h368l-183 594zM424 1899h211v-246h-211v246zM779 1899h212v-246h-212v246z" />
<glyph unicode="&#xc5;" horiz-adv-x="1426" d="M929 1464l489 -1464h-349l-84 272h-542l-86 -272h-348l489 1464q-21 34 -31 71.5t-10 80.5q0 117 75.5 201t181.5 84q104 0 179.5 -84t75.5 -201q0 -47 -9.5 -85t-30.5 -67zM596 1616q0 -54 34.5 -92.5t83.5 -38.5q48 0 83 38.5t35 92.5t-35.5 92.5t-82.5 38.5 q-49 0 -83.5 -38.5t-34.5 -92.5zM529 549h368l-183 594z" />
<glyph unicode="&#xc6;" horiz-adv-x="1999" d="M802 1237l-230 -610h339v610h-109zM562 1493h1283v-291h-588v-278h553v-291h-553v-342h609v-291h-955v350h-445l-132 -350h-334z" />
<glyph unicode="&#xc7;" horiz-adv-x="1352" d="M1235 82q-96 -55 -199.5 -83t-215.5 -28q-336 0 -532 208.5t-196 565.5q0 358 196 566.5t532 208.5q112 0 215.5 -28t199.5 -83v-309q-97 73 -190.5 107t-196.5 34q-186 0 -292 -132t-106 -364q0 -231 106 -363t292 -132q103 0 196.5 34t190.5 107v-309zM876 0 q52 -62 77 -115t25 -100q0 -95 -55.5 -140.5t-170.5 -45.5q-43 0 -88.5 6.5t-92.5 19.5l-1 152q45 -16 82.5 -23.5t66.5 -7.5q52 0 81.5 23t29.5 63q0 26 -19.5 67t-59.5 101h125z" />
<glyph unicode="&#xc8;" horiz-adv-x="1259" d="M169 1493h935v-291h-588v-278h553v-291h-553v-342h608v-291h-955v1493zM577 1899l179 -264h-177l-256 264h254z" />
<glyph unicode="&#xc9;" horiz-adv-x="1259" d="M169 1493h935v-291h-588v-278h553v-291h-553v-342h608v-291h-955v1493zM669 1899h255l-257 -264h-176z" />
<glyph unicode="&#xca;" horiz-adv-x="1259" d="M169 1493h935v-291h-588v-278h553v-291h-553v-342h608v-291h-955v1493zM485 1899h277l200 -264h-160l-179 161l-179 -161h-160z" />
<glyph unicode="&#xcb;" horiz-adv-x="1259" d="M169 1493h935v-291h-588v-278h553v-291h-553v-342h608v-291h-955v1493zM340 1899h211v-246h-211v246zM695 1899h212v-246h-212v246z" />
<glyph unicode="&#xcc;" horiz-adv-x="685" d="M169 1493h347v-1493h-347v1493zM274 1899l179 -264h-177l-256 264h254z" />
<glyph unicode="&#xcd;" horiz-adv-x="685" d="M169 1493h347v-1493h-347v1493zM366 1899h255l-257 -264h-176z" />
<glyph unicode="&#xce;" horiz-adv-x="685" d="M169 1493h347v-1493h-347v1493zM204 1899h277l200 -264h-160l-179 161l-179 -161h-160z" />
<glyph unicode="&#xcf;" horiz-adv-x="685" d="M169 1493h347v-1493h-347v1493zM59 1899h211v-246h-211v246zM414 1899h212v-246h-212v246z" />
<glyph unicode="&#xd0;" horiz-adv-x="1544" d="M533 1202v-321h211v-260h-211v-330h123q212 0 324.5 117t112.5 340q0 222 -112 338t-325 116h-123zM186 1493h365q307 0 456 -48.5t257 -164.5q94 -101 140.5 -233t46.5 -299q0 -169 -46.5 -301.5t-140.5 -233.5q-108 -116 -259.5 -164.5t-453.5 -48.5h-365v621h-156v260 h156v612z" />
<glyph unicode="&#xd1;" horiz-adv-x="1542" d="M169 1493h387l489 -1024v1024h328v-1493h-387l-488 1024v-1024h-329v1493zM741 1684l-50 35l-9 6q-41 26 -66 26q-29 0 -47 -30t-18 -80v-6h-125q0 5 1 15t1 15q0 106 48 171t126 65q34 0 67 -12.5t68 -36.5l53 -39q19 -14 36.5 -21.5t32.5 -7.5q33 0 50.5 30t17.5 87 h125q0 -6 -0.5 -16t-0.5 -15q0 -106 -48.5 -170.5t-126.5 -64.5q-34 0 -65.5 11t-69.5 38z" />
<glyph unicode="&#xd2;" horiz-adv-x="1566" d="M783 1241q-158 0 -245.5 -130t-87.5 -366q0 -235 87.5 -365t245.5 -130q159 0 246.5 130t87.5 365q0 236 -87.5 366t-246.5 130zM783 1520q324 0 507.5 -206t183.5 -569q0 -362 -183.5 -568t-507.5 -206q-323 0 -507 206t-184 568q0 363 184 569t507 206zM715 1899 l179 -264h-177l-256 264h254z" />
<glyph unicode="&#xd3;" horiz-adv-x="1566" d="M783 1241q-158 0 -245.5 -130t-87.5 -366q0 -235 87.5 -365t245.5 -130q159 0 246.5 130t87.5 365q0 236 -87.5 366t-246.5 130zM783 1520q324 0 507.5 -206t183.5 -569q0 -362 -183.5 -568t-507.5 -206q-323 0 -507 206t-184 568q0 363 184 569t507 206zM807 1899h255 l-257 -264h-176z" />
<glyph unicode="&#xd4;" horiz-adv-x="1566" d="M783 1241q-158 0 -245.5 -130t-87.5 -366q0 -235 87.5 -365t245.5 -130q159 0 246.5 130t87.5 365q0 236 -87.5 366t-246.5 130zM783 1520q324 0 507.5 -206t183.5 -569q0 -362 -183.5 -568t-507.5 -206q-323 0 -507 206t-184 568q0 363 184 569t507 206zM623 1899h277 l200 -264h-160l-179 161l-179 -161h-160z" />
<glyph unicode="&#xd5;" horiz-adv-x="1566" d="M783 1241q-158 0 -245.5 -130t-87.5 -366q0 -235 87.5 -365t245.5 -130q159 0 246.5 130t87.5 365q0 236 -87.5 366t-246.5 130zM783 1520q324 0 507.5 -206t183.5 -569q0 -362 -183.5 -568t-507.5 -206q-323 0 -507 206t-184 568q0 363 184 569t507 206zM786 1684 l-50 35l-9 6q-41 26 -66 26q-29 0 -47 -30t-18 -80v-6h-125q0 5 1 15t1 15q0 106 48 171t126 65q34 0 67 -12.5t68 -36.5l53 -39q19 -14 36.5 -21.5t32.5 -7.5q33 0 50.5 30t17.5 87h125q0 -6 -0.5 -16t-0.5 -15q0 -106 -48.5 -170.5t-126.5 -64.5q-34 0 -65.5 11t-69.5 38z " />
<glyph unicode="&#xd6;" horiz-adv-x="1566" d="M783 1241q-158 0 -245.5 -130t-87.5 -366q0 -235 87.5 -365t245.5 -130q159 0 246.5 130t87.5 365q0 236 -87.5 366t-246.5 130zM783 1520q324 0 507.5 -206t183.5 -569q0 -362 -183.5 -568t-507.5 -206q-323 0 -507 206t-184 568q0 363 184 569t507 206zM500 1899h211 v-246h-211v246zM855 1899h212v-246h-212v246z" />
<glyph unicode="&#xd7;" horiz-adv-x="1544" d="M1314 1075l-391 -434l391 -432l-151 -168l-391 432l-390 -432l-152 168l391 432l-391 434l152 168l390 -434l391 434z" />
<glyph unicode="&#xd8;" horiz-adv-x="1566" d="M544 371q46 -62 105 -91.5t134 -29.5q159 0 246.5 130t87.5 365q0 68 -7 126.5t-21 107.5zM1020 1126q-46 58 -104.5 86.5t-132.5 28.5q-158 0 -245.5 -130t-87.5 -366q0 -64 6.5 -120.5t18.5 -102.5zM225 244q-67 100 -100 225t-33 276q0 363 184 569t507 206 q139 0 250.5 -37.5t203.5 -114.5l179 199l101 -115l-181 -199q70 -99 104 -226.5t34 -281.5q0 -362 -183.5 -568t-507.5 -206q-138 0 -252.5 39.5t-206.5 118.5l-182 -203l-102 113z" />
<glyph unicode="&#xd9;" horiz-adv-x="1496" d="M169 1493h347v-895q0 -185 54.5 -264.5t177.5 -79.5q124 0 178.5 79.5t54.5 264.5v895h347v-895q0 -317 -143.5 -472t-436.5 -155t-436 155t-143 472v895zM680 1899l179 -264h-177l-256 264h254z" />
<glyph unicode="&#xda;" horiz-adv-x="1496" d="M169 1493h347v-895q0 -185 54.5 -264.5t177.5 -79.5q124 0 178.5 79.5t54.5 264.5v895h347v-895q0 -317 -143.5 -472t-436.5 -155t-436 155t-143 472v895zM772 1899h255l-257 -264h-176z" />
<glyph unicode="&#xdb;" horiz-adv-x="1496" d="M169 1493h347v-895q0 -185 54.5 -264.5t177.5 -79.5q124 0 178.5 79.5t54.5 264.5v895h347v-895q0 -317 -143.5 -472t-436.5 -155t-436 155t-143 472v895zM611 1899h277l200 -264h-160l-179 161l-179 -161h-160z" />
<glyph unicode="&#xdc;" horiz-adv-x="1496" d="M169 1493h347v-895q0 -185 54.5 -264.5t177.5 -79.5q124 0 178.5 79.5t54.5 264.5v895h347v-895q0 -317 -143.5 -472t-436.5 -155t-436 155t-143 472v895zM466 1899h211v-246h-211v246zM821 1899h212v-246h-212v246z" />
<glyph unicode="&#xdd;" horiz-adv-x="1334" d="M-18 1493h379l306 -532l306 532h380l-512 -864v-629h-347v629zM691 1899h255l-257 -264h-176z" />
<glyph unicode="&#xde;" horiz-adv-x="1359" d="M516 258v-258h-347v1493h347v-260h228q257 0 394 -126.5t137 -361.5q0 -234 -137 -360.5t-394 -126.5h-228zM516 956v-419h191q101 0 156 54.5t55 153.5q0 101 -55 156t-156 55h-191z" />
<glyph unicode="&#xdf;" horiz-adv-x="1325" d="M155 1114q0 222 121.5 332t367.5 110q235 0 355.5 -112t120.5 -330v-71q-135 -10 -200 -49t-65 -113q0 -37 22 -65.5t106 -80.5l62 -37q104 -64 152.5 -148.5t48.5 -201.5q0 -189 -103 -283t-311 -94q-59 0 -121 12.5t-129 36.5v244q51 -27 102.5 -41t100.5 -14 q65 0 104.5 36t39.5 93q0 47 -25 81t-113 89l-63 39q-79 49 -117 116.5t-38 157.5q0 116 62.5 195t193.5 129q-1 85 -44 129.5t-125 44.5q-91 0 -137 -55t-46 -164v-1100h-322v1114z" />
<glyph unicode="&#xe0;" horiz-adv-x="1243" d="M607 504q-101 0 -152 -38t-51 -112q0 -68 41 -106.5t114 -38.5q91 0 153 72.5t62 181.5v41h-167zM1099 639v-639h-325v166q-65 -102 -146 -148.5t-197 -46.5q-157 0 -254.5 101.5t-97.5 263.5q0 197 122 289t383 92h190v28q0 85 -60.5 124.5t-187.5 39.5q-104 0 -193 -23 t-166 -69v273q104 28 208.5 42.5t208.5 14.5q273 0 394 -119.5t121 -388.5zM506 1638l254 -376h-176l-332 376h254z" />
<glyph unicode="&#xe1;" horiz-adv-x="1243" d="M607 504q-101 0 -152 -38t-51 -112q0 -68 41 -106.5t114 -38.5q91 0 153 72.5t62 181.5v41h-167zM1099 639v-639h-325v166q-65 -102 -146 -148.5t-197 -46.5q-157 0 -254.5 101.5t-97.5 263.5q0 197 122 289t383 92h190v28q0 85 -60.5 124.5t-187.5 39.5q-104 0 -193 -23 t-166 -69v273q104 28 208.5 42.5t208.5 14.5q273 0 394 -119.5t121 -388.5zM749 1638h255l-332 -376h-177z" />
<glyph unicode="&#xe2;" horiz-adv-x="1243" d="M607 504q-101 0 -152 -38t-51 -112q0 -68 41 -106.5t114 -38.5q91 0 153 72.5t62 181.5v41h-167zM1099 639v-639h-325v166q-65 -102 -146 -148.5t-197 -46.5q-157 0 -254.5 101.5t-97.5 263.5q0 197 122 289t383 92h190v28q0 85 -60.5 124.5t-187.5 39.5q-104 0 -193 -23 t-166 -69v273q104 28 208.5 42.5t208.5 14.5q273 0 394 -119.5t121 -388.5zM519 1638h218l230 -376h-160l-179 225l-179 -225h-160z" />
<glyph unicode="&#xe3;" horiz-adv-x="1243" d="M607 504q-101 0 -152 -38t-51 -112q0 -68 41 -106.5t114 -38.5q91 0 153 72.5t62 181.5v41h-167zM1099 639v-639h-325v166q-65 -102 -146 -148.5t-197 -46.5q-157 0 -254.5 101.5t-97.5 263.5q0 197 122 289t383 92h190v28q0 85 -60.5 124.5t-187.5 39.5q-104 0 -193 -23 t-166 -69v273q104 28 208.5 42.5t208.5 14.5q273 0 394 -119.5t121 -388.5zM630 1364l-50 37l-9 6q-42 31 -65 31q-32 0 -49 -31t-17 -90v-8h-125q0 136 46 210t130 74q32 0 65 -13.5t70 -43.5l55 -43q20 -15 36.5 -23t29.5 -8q33 0 51 32t18 89v8h125q0 -136 -46.5 -210 t-129.5 -74q-33 0 -63 12t-72 45z" />
<glyph unicode="&#xe4;" horiz-adv-x="1243" d="M607 504q-101 0 -152 -38t-51 -112q0 -68 41 -106.5t114 -38.5q91 0 153 72.5t62 181.5v41h-167zM1099 639v-639h-325v166q-65 -102 -146 -148.5t-197 -46.5q-157 0 -254.5 101.5t-97.5 263.5q0 197 122 289t383 92h190v28q0 85 -60.5 124.5t-187.5 39.5q-104 0 -193 -23 t-166 -69v273q104 28 208.5 42.5t208.5 14.5q273 0 394 -119.5t121 -388.5zM344 1585h212v-246h-212v246zM700 1585h211v-246h-211v246z" />
<glyph unicode="&#xe5;" horiz-adv-x="1243" d="M607 504q-101 0 -152 -38t-51 -112q0 -68 41 -106.5t114 -38.5q91 0 153 72.5t62 181.5v41h-167zM1099 639v-639h-325v166q-65 -102 -146 -148.5t-197 -46.5q-157 0 -254.5 101.5t-97.5 263.5q0 197 122 289t383 92h190v28q0 85 -60.5 124.5t-187.5 39.5q-104 0 -193 -23 t-166 -69v273q104 28 208.5 42.5t208.5 14.5q273 0 394 -119.5t121 -388.5zM510 1534q0 -55 34.5 -93t83.5 -38t83.5 38.5t34.5 92.5t-35 92.5t-83 38.5q-50 0 -84 -38.5t-34 -92.5zM371 1534q0 118 75.5 201.5t181.5 83.5t181 -83.5t75 -201.5t-75 -201.5t-181 -83.5 t-181.5 83.5t-75.5 201.5z" />
<glyph unicode="&#xe6;" horiz-adv-x="1931" d="M1511 682q0 102 -53.5 164.5t-139.5 62.5q-93 0 -150.5 -58.5t-72.5 -168.5h416zM607 504q-101 0 -152 -38t-51 -112q0 -68 41 -106.5t114 -38.5q91 0 153 72.5t62 181.5v41h-167zM167 1090q107 28 207.5 42.5t187.5 14.5q136 0 233.5 -38.5t161.5 -117.5 q69 77 161 116.5t201 39.5q239 0 381.5 -159t142.5 -425v-102h-754q13 -126 82.5 -189t196.5 -63q102 0 208.5 33.5t219.5 101.5v-276q-115 -48 -229.5 -72.5t-228.5 -24.5q-161 0 -280 53.5t-184 153.5q-91 -107 -191.5 -157t-225.5 -50q-174 0 -276 98.5t-102 266.5 q0 197 122 289t383 92h190v28q0 85 -60.5 124.5t-187.5 39.5q-104 0 -193 -23t-166 -69v273z" />
<glyph unicode="&#xe7;" horiz-adv-x="1092" d="M969 1085v-292q-65 50 -131.5 74t-137.5 24q-135 0 -210 -87.5t-75 -244.5t75 -244.5t210 -87.5q76 0 144 25t125 74v-293q-75 -31 -153 -46.5t-156 -15.5q-273 0 -427 155.5t-154 432.5t154 432.5t427 155.5q79 0 156 -15.5t153 -46.5zM708 0q52 -62 77 -115t25 -100 q0 -95 -55.5 -140.5t-170.5 -45.5q-43 0 -88.5 6.5t-92.5 19.5l-1 152q45 -16 82.5 -23.5t66.5 -7.5q52 0 81.5 23t29.5 63q0 26 -19.5 67t-59.5 101h125z" />
<glyph unicode="&#xe8;" horiz-adv-x="1250" d="M1161 563v-102h-753q11 -126 81.5 -189t196.5 -63q102 0 208.5 33.5t218.5 101.5v-276q-114 -48 -228.5 -72.5t-228.5 -24.5q-274 0 -425.5 154.5t-151.5 433.5q0 274 149 431t410 157q238 0 380.5 -159t142.5 -425zM830 682q0 102 -53.5 164.5t-140.5 62.5 q-93 0 -151.5 -58.5t-73.5 -168.5h419zM534 1638l254 -376h-176l-332 376h254z" />
<glyph unicode="&#xe9;" horiz-adv-x="1250" d="M1161 563v-102h-753q11 -126 81.5 -189t196.5 -63q102 0 208.5 33.5t218.5 101.5v-276q-114 -48 -228.5 -72.5t-228.5 -24.5q-274 0 -425.5 154.5t-151.5 433.5q0 274 149 431t410 157q238 0 380.5 -159t142.5 -425zM830 682q0 102 -53.5 164.5t-140.5 62.5 q-93 0 -151.5 -58.5t-73.5 -168.5h419zM777 1638h255l-332 -376h-177z" />
<glyph unicode="&#xea;" horiz-adv-x="1250" d="M1161 563v-102h-753q11 -126 81.5 -189t196.5 -63q102 0 208.5 33.5t218.5 101.5v-276q-114 -48 -228.5 -72.5t-228.5 -24.5q-274 0 -425.5 154.5t-151.5 433.5q0 274 149 431t410 157q238 0 380.5 -159t142.5 -425zM830 682q0 102 -53.5 164.5t-140.5 62.5 q-93 0 -151.5 -58.5t-73.5 -168.5h419zM547 1638h218l230 -376h-160l-179 225l-179 -225h-160z" />
<glyph unicode="&#xeb;" horiz-adv-x="1250" d="M1161 563v-102h-753q11 -126 81.5 -189t196.5 -63q102 0 208.5 33.5t218.5 101.5v-276q-114 -48 -228.5 -72.5t-228.5 -24.5q-274 0 -425.5 154.5t-151.5 433.5q0 274 149 431t410 157q238 0 380.5 -159t142.5 -425zM830 682q0 102 -53.5 164.5t-140.5 62.5 q-93 0 -151.5 -58.5t-73.5 -168.5h419zM372 1585h212v-246h-212v246zM728 1585h211v-246h-211v246z" />
<glyph unicode="&#xec;" horiz-adv-x="631" d="M155 1120h322v-1120h-322v1120zM216 1638l254 -376h-176l-332 376h254z" />
<glyph unicode="&#xed;" horiz-adv-x="631" d="M155 1120h322v-1120h-322v1120zM459 1638h255l-332 -376h-177z" />
<glyph unicode="&#xee;" horiz-adv-x="631" d="M155 1120h322v-1120h-322v1120zM206 1638h218l230 -376h-160l-179 225l-179 -225h-160z" />
<glyph unicode="&#xef;" horiz-adv-x="631" d="M155 1120h322v-1120h-322v1120zM31 1585h212v-246h-212v246zM387 1585h211v-246h-211v246z" />
<glyph unicode="&#xf0;" horiz-adv-x="1266" d="M828 743q-50 27 -98.5 40.5t-95.5 13.5q-105 0 -162 -66.5t-57 -187.5q0 -148 58.5 -232t160.5 -84q106 0 161.5 85.5t55.5 246.5q0 45 -5.5 91t-17.5 93zM986 1100q106 -136 153.5 -264.5t47.5 -276.5q0 -276 -146 -432t-407 -156q-260 0 -407.5 156t-147.5 432 q0 231 135.5 363.5t373.5 132.5q41 0 76 -6.5t68 -20.5l-171 219l-336 -119l-33 129l276 97l-169 202h317l100 -116l338 114l31 -129l-283 -96z" />
<glyph unicode="&#xf1;" horiz-adv-x="1312" d="M1168 682v-682h-324v111v411q0 145 -6 200t-20 81q-19 35 -51.5 54.5t-73.5 19.5q-101 0 -158.5 -86.5t-57.5 -239.5v-551h-322v1120h322v-164q73 98 155 144.5t181 46.5q174 0 264.5 -119t90.5 -346zM681 1364l-50 37l-9 6q-42 31 -65 31q-32 0 -49 -31t-17 -90v-8h-125 q0 136 46 210t130 74q32 0 65 -13.5t70 -43.5l55 -43q20 -15 36.5 -23t29.5 -8q33 0 51 32t18 89v8h125q0 -136 -46.5 -210t-129.5 -74q-33 0 -63 12t-72 45z" />
<glyph unicode="&#xf2;" horiz-adv-x="1266" d="M634 891q-107 0 -163 -85.5t-56 -246.5t56 -246.5t163 -85.5q106 0 161.5 85.5t55.5 246.5t-55.5 246.5t-161.5 85.5zM634 1147q261 0 407 -156t146 -432t-146 -432t-407 -156q-260 0 -407.5 156t-147.5 432t147.5 432t407.5 156zM533 1638l254 -376h-176l-332 376h254z " />
<glyph unicode="&#xf3;" horiz-adv-x="1266" d="M634 891q-107 0 -163 -85.5t-56 -246.5t56 -246.5t163 -85.5q106 0 161.5 85.5t55.5 246.5t-55.5 246.5t-161.5 85.5zM634 1147q261 0 407 -156t146 -432t-146 -432t-407 -156q-260 0 -407.5 156t-147.5 432t147.5 432t407.5 156zM776 1638h255l-332 -376h-177z" />
<glyph unicode="&#xf4;" horiz-adv-x="1266" d="M634 891q-107 0 -163 -85.5t-56 -246.5t56 -246.5t163 -85.5q106 0 161.5 85.5t55.5 246.5t-55.5 246.5t-161.5 85.5zM634 1147q261 0 407 -156t146 -432t-146 -432t-407 -156q-260 0 -407.5 156t-147.5 432t147.5 432t407.5 156zM524 1638h218l230 -376h-160l-179 225 l-179 -225h-160z" />
<glyph unicode="&#xf5;" horiz-adv-x="1266" d="M634 891q-107 0 -163 -85.5t-56 -246.5t56 -246.5t163 -85.5q106 0 161.5 85.5t55.5 246.5t-55.5 246.5t-161.5 85.5zM634 1147q261 0 407 -156t146 -432t-146 -432t-407 -156q-260 0 -407.5 156t-147.5 432t147.5 432t407.5 156zM634 1364l-50 37l-9 6q-42 31 -65 31 q-32 0 -49 -31t-17 -90v-8h-125q0 136 46 210t130 74q32 0 65 -13.5t70 -43.5l55 -43q20 -15 36.5 -23t29.5 -8q33 0 51 32t18 89v8h125q0 -136 -46.5 -210t-129.5 -74q-33 0 -63 12t-72 45z" />
<glyph unicode="&#xf6;" horiz-adv-x="1266" d="M634 891q-107 0 -163 -85.5t-56 -246.5t56 -246.5t163 -85.5q106 0 161.5 85.5t55.5 246.5t-55.5 246.5t-161.5 85.5zM634 1147q261 0 407 -156t146 -432t-146 -432t-407 -156q-260 0 -407.5 156t-147.5 432t147.5 432t407.5 156zM348 1585h212v-246h-212v246zM704 1585 h211v-246h-211v246z" />
<glyph unicode="&#xf7;" horiz-adv-x="1544" d="M634 395h277v-309h-277v309zM634 1198h277v-309h-277v309zM195 760h1154v-236h-1154v236z" />
<glyph unicode="&#xf8;" horiz-adv-x="1266" d="M770 836q-26 28 -59.5 41.5t-76.5 13.5q-107 0 -163 -85.5t-56 -246.5q0 -41 3 -73.5t10 -59.5zM492 287q28 -30 63.5 -45t78.5 -15q106 0 161.5 85.5t55.5 246.5q0 43 -3 76.5t-9 62.5zM201 158q-61 78 -91.5 178t-30.5 223q0 276 147.5 432t407.5 156q96 0 176.5 -22 t147.5 -66l133 158l98 -101l-127 -149q63 -80 94 -181t31 -227q0 -276 -146 -432t-407 -156q-97 0 -178.5 22.5t-151.5 67.5l-133 -155l-101 94z" />
<glyph unicode="&#xf9;" horiz-adv-x="1312" d="M144 436v684h324v-112q0 -91 -1 -228.5t-1 -183.5q0 -135 6.5 -194.5t21.5 -86.5q20 -35 52 -54t73 -19q101 0 158.5 86t57.5 239v553h322v-1120h-322v162q-73 -98 -154.5 -144.5t-179.5 -46.5q-174 0 -265.5 119t-91.5 346zM557 1638l254 -376h-176l-332 376h254z" />
<glyph unicode="&#xfa;" horiz-adv-x="1312" d="M144 436v684h324v-112q0 -91 -1 -228.5t-1 -183.5q0 -135 6.5 -194.5t21.5 -86.5q20 -35 52 -54t73 -19q101 0 158.5 86t57.5 239v553h322v-1120h-322v162q-73 -98 -154.5 -144.5t-179.5 -46.5q-174 0 -265.5 119t-91.5 346zM800 1638h255l-332 -376h-177z" />
<glyph unicode="&#xfb;" horiz-adv-x="1312" d="M144 436v684h324v-112q0 -91 -1 -228.5t-1 -183.5q0 -135 6.5 -194.5t21.5 -86.5q20 -35 52 -54t73 -19q101 0 158.5 86t57.5 239v553h322v-1120h-322v162q-73 -98 -154.5 -144.5t-179.5 -46.5q-174 0 -265.5 119t-91.5 346zM543 1638h218l230 -376h-160l-179 225 l-179 -225h-160z" />
<glyph unicode="&#xfc;" horiz-adv-x="1312" d="M144 436v684h324v-112q0 -91 -1 -228.5t-1 -183.5q0 -135 6.5 -194.5t21.5 -86.5q20 -35 52 -54t73 -19q101 0 158.5 86t57.5 239v553h322v-1120h-322v162q-73 -98 -154.5 -144.5t-179.5 -46.5q-174 0 -265.5 119t-91.5 346zM368 1585h212v-246h-212v246zM724 1585h211 v-246h-211v246z" />
<glyph unicode="&#xfd;" horiz-adv-x="1201" d="M22 1120h323l271 -760l230 760h322l-424 -1226q-64 -187 -149 -261.5t-224 -74.5h-187v235h101q82 0 119.5 29t58.5 104l9 31zM722 1638h255l-332 -376h-177z" />
<glyph unicode="&#xfe;" horiz-adv-x="1319" d="M477 162v-588h-322v1982h322v-600q67 98 148 144.5t186 46.5q186 0 306 -164.5t120 -423.5t-120 -423.5t-306 -164.5q-105 0 -186 46.5t-148 144.5zM691 887q-103 0 -158.5 -84.5t-55.5 -243.5t55.5 -243.5t158.5 -84.5q104 0 158.5 84t54.5 244t-54.5 244t-158.5 84z " />
<glyph unicode="&#xff;" horiz-adv-x="1201" d="M22 1120h323l271 -760l230 760h322l-424 -1226q-64 -187 -149 -261.5t-224 -74.5h-187v235h101q82 0 119.5 29t58.5 104l9 31zM317 1585h212v-246h-212v246zM673 1585h211v-246h-211v246z" />
<glyph unicode="&#x131;" horiz-adv-x="631" d="M155 1120h322v-1120h-322v1120z" />
<glyph unicode="&#x152;" horiz-adv-x="2151" d="M1062 1202h-94q-261 0 -389.5 -113t-128.5 -341q0 -229 129 -343t389 -114h94v911zM981 1493h1015v-291h-588v-278h553v-291h-553v-342h609v-291h-1036q-12 0 -33 -1t-32 -1q-398 0 -611 194.5t-213 555.5q0 360 213 553.5t611 193.5q10 0 31.5 -1t33.5 -1z" />
<glyph unicode="&#x153;" horiz-adv-x="2016" d="M1597 682q0 102 -53.5 164.5t-140.5 62.5q-93 0 -152 -58.5t-73 -168.5h419zM1928 563v-102h-754q12 -126 82.5 -189t196.5 -63q101 0 208 33.5t219 101.5v-276q-113 -48 -228.5 -72.5t-228.5 -24.5q-149 0 -245 40.5t-161 127.5q-74 -84 -169.5 -126t-213.5 -42 q-260 0 -407.5 156t-147.5 432t147.5 432t407.5 156q121 0 213.5 -41t165.5 -127q74 87 163.5 127.5t211.5 40.5q250 0 395 -157t145 -427zM634 891q-107 0 -163 -85.5t-56 -246.5t56 -246.5t163 -85.5q106 0 161.5 85.5t55.5 246.5t-55.5 246.5t-161.5 85.5z" />
<glyph unicode="&#x178;" horiz-adv-x="1334" d="M-18 1493h379l306 -532l306 532h380l-512 -864v-629h-347v629zM384 1899h211v-246h-211v246zM739 1899h212v-246h-212v246z" />
<glyph unicode="&#x2c6;" horiz-adv-x="921" d="M352 1638h218l230 -376h-160l-179 225l-179 -225h-160z" />
<glyph unicode="&#x2da;" horiz-adv-x="921" d="M343 1534q0 -55 34.5 -93t83.5 -38t83.5 38.5t34.5 92.5t-35 92.5t-83 38.5q-50 0 -84 -38.5t-34 -92.5zM204 1534q0 118 75.5 201.5t181.5 83.5t181 -83.5t75 -201.5t-75 -201.5t-181 -83.5t-181.5 83.5t-75.5 201.5z" />
<glyph unicode="&#x2dc;" horiz-adv-x="921" d="M463 1364l-50 37l-9 6q-42 31 -65 31q-32 0 -49 -31t-17 -90v-8h-125q0 136 46 210t130 74q32 0 65 -13.5t70 -43.5l55 -43q20 -15 36.5 -23t29.5 -8q33 0 51 32t18 89v8h125q0 -136 -46.5 -210t-129.5 -74q-33 0 -63 12t-72 45z" />
<glyph unicode="&#x2000;" horiz-adv-x="953" />
<glyph unicode="&#x2001;" horiz-adv-x="1907" />
<glyph unicode="&#x2002;" horiz-adv-x="953" />
<glyph unicode="&#x2003;" horiz-adv-x="1907" />
<glyph unicode="&#x2004;" horiz-adv-x="635" />
<glyph unicode="&#x2005;" horiz-adv-x="476" />
<glyph unicode="&#x2006;" horiz-adv-x="317" />
<glyph unicode="&#x2007;" horiz-adv-x="317" />
<glyph unicode="&#x2008;" horiz-adv-x="238" />
<glyph unicode="&#x2009;" horiz-adv-x="381" />
<glyph unicode="&#x200a;" horiz-adv-x="105" />
<glyph unicode="&#x2010;" horiz-adv-x="765" d="M100 735h565v-291h-565v291z" />
<glyph unicode="&#x2011;" horiz-adv-x="765" d="M100 735h565v-291h-565v291z" />
<glyph unicode="&#x2012;" horiz-adv-x="765" d="M100 735h565v-291h-565v291z" />
<glyph unicode="&#x2013;" horiz-adv-x="921" d="M99 690h724v-258h-724v258z" />
<glyph unicode="&#x2014;" horiz-adv-x="1843" d="M99 690h1645v-258h-1645v258z" />
<glyph unicode="&#x2018;" horiz-adv-x="700" d="M496 856h-306v285l204 352h192l-90 -352v-285z" />
<glyph unicode="&#x2019;" horiz-adv-x="700" d="M206 1493h306v-285l-204 -352h-192l90 352v285z" />
<glyph unicode="&#x201a;" horiz-adv-x="700" d="M223 387h306v-285l-207 -352h-190l91 352v285z" />
<glyph unicode="&#x201c;" horiz-adv-x="1211" d="M951 856h-306v283l205 354h191l-90 -354v-283zM496 856h-306v285l204 352h192l-90 -352v-285z" />
<glyph unicode="&#x201d;" horiz-adv-x="1211" d="M260 1493h306v-285l-205 -352h-192l91 352v285zM716 1493h306v-287l-206 -350h-191l91 350v287z" />
<glyph unicode="&#x201e;" horiz-adv-x="1211" d="M223 387h306v-285l-207 -352h-190l91 352v285zM679 387h306v-287l-206 -350h-191l91 350v287z" />
<glyph unicode="&#x2022;" horiz-adv-x="1178" d="M266 762q0 74 23.5 139t69.5 115q48 51 106.5 77.5t124.5 26.5q65 0 124 -27t104 -77q47 -52 71 -116.5t24 -137.5q0 -74 -24.5 -139.5t-70.5 -116.5t-105 -78t-125 -27t-124.5 27t-104.5 78q-45 51 -69 116.5t-24 139.5z" />
<glyph unicode="&#x2026;" horiz-adv-x="1843" d="M1373 387h324v-387h-324v387zM146 387h324v-387h-324v387zM760 387h324v-387h-324v387z" />
<glyph unicode="&#x202f;" horiz-adv-x="381" />
<glyph unicode="&#x2039;" horiz-adv-x="759" d="M586 1063v-242l-264 -221l264 -221v-242l-444 369v186z" />
<glyph unicode="&#x203a;" horiz-adv-x="759" d="M174 1063l443 -371v-186l-443 -369v242l262 221l-262 221v242z" />
<glyph unicode="&#x2044;" horiz-adv-x="307" d="M-166 -29h-201l840 1549h202z" />
<glyph unicode="&#x205f;" horiz-adv-x="476" />
<glyph unicode="&#x2074;" horiz-adv-x="807" d="M402 1308l-215 -323h215v323zM386 1503h223v-518h124v-155h-124v-162h-207v162h-352v168z" />
<glyph unicode="&#x20ac;" d="M1159 82q-85 -55 -178.5 -83t-193.5 -28q-236 0 -397.5 130.5t-229.5 375.5h-195l79 195h88q-1 14 -1.5 29.5t-0.5 43.5q0 29 0.5 45t1.5 31h-167l79 195h116q70 246 230.5 375t396.5 129q100 0 193.5 -28t178.5 -83v-309q-73 78 -155.5 117.5t-171.5 39.5 q-115 0 -195.5 -61.5t-120.5 -179.5h485l-78 -195h-443q-2 -16 -2.5 -34t-0.5 -54q0 -13 0.5 -28.5t1.5 -32.5h386l-80 -195h-269q45 -122 123.5 -183t192.5 -61q89 0 170.5 39.5t156.5 118.5v-309z" />
<glyph unicode="&#x2122;" horiz-adv-x="1843" d="M1038 1493l107 -227l107 227h204v-578h-153v437l-123 -256h-68l-124 256v-437h-155v578h205zM732 1493v-143h-157v-435h-155v435h-154v143h466z" />
<glyph unicode="&#x25fc;" horiz-adv-x="1120" d="M0 1120h1120v-1120h-1120v1120z" />
<glyph horiz-adv-x="0" d="M-744 1526h211v-246h-211v246zM-389 1526h212v-246h-212v246z" />
<glyph horiz-adv-x="0" d="M-415 1526h255l-257 -264h-176z" />
<glyph horiz-adv-x="0" d="M-459 1311l-50 35l-9 6q-41 26 -66 26q-29 0 -47 -30t-18 -80v-6h-125q0 5 1 15t1 15q0 106 48 171t126 65q34 0 67 -12.5t68 -36.5l53 -39q19 -14 36.5 -21.5t32.5 -7.5q33 0 50.5 30t17.5 87h125q0 -6 -0.5 -16t-0.5 -15q0 -106 -48.5 -170.5t-126.5 -64.5 q-34 0 -65.5 11t-69.5 38z" />
<glyph horiz-adv-x="0" d="M-507 1526l179 -264h-177l-256 264h254z" />
<glyph horiz-adv-x="0" d="M-599 1526h277l200 -264h-160l-179 161l-179 -161h-160z" />
</font>
</defs>
</svg>
