<?xml version="1.0" standalone="no"?>
<!DOCTYPE svg PUBLIC "-//W3C//DTD SVG 1.1//EN" "http://www.w3.org/Graphics/SVG/1.1/DTD/svg11.dtd" >
<svg xmlns="http://www.w3.org/2000/svg" xmlns:xlink="http://www.w3.org/1999/xlink" version="1.1">
<metadata></metadata>
<defs>
<font id="dejavu_sanscondensed_oblique" horiz-adv-x="1172" >
<font-face units-per-em="2048" ascent="1556" descent="-492" />
<missing-glyph horiz-adv-x="585" />
<glyph unicode="&#xfb01;" horiz-adv-x="1190" d="M1015 1556h167l-41 -233h-166zM881 1556l-26 -153h-158q-90 0 -131 -39.5t-61 -144.5l-18 -99h619l-197 -1120h-167l176 978h-455l-171 -978h-167l172 977h-158l23 143h158l14 78q34 198 120 278t270 80h157z" />
<glyph unicode="&#xfb02;" horiz-adv-x="1190" d="M724 1556h458l-273 -1556h-167l252 1403h-297q-90 0 -131 -39.5t-61 -144.5l-18 -99h273l-25 -143h-272l-171 -977h-167l172 977h-158l23 143h158l14 78q34 199 119.5 278.5t270.5 79.5z" />
<glyph unicode="&#xfb03;" horiz-adv-x="1842" d="M880 1556l-27 -153h-158q-89 0 -131 -40q-41 -40 -59 -144l-18 -99h454l15 78q32 187 126 272q30 28 68 47q78 39 195 39h156l-27 -153h-158q-89 0 -131 -40q-41 -40 -59 -144l-18 -99h621l-195 -1120h-167l171 977h-454l-171 -977h-167l171 977h-454l-171 -977h-167 l171 977h-158l24 143h158l15 78q32 187 126 272q93 86 263 86h156zM1639 1554h166l-40 -233h-167z" />
<glyph unicode="&#xfb04;" horiz-adv-x="1842" d="M880 1556l-27 -153h-158q-89 0 -130.5 -40t-59.5 -144l-18 -99h454l15 78q32 187 126 272q92 86 263 86h460l-271 -1556h-167l245 1403h-296q-89 0 -130.5 -40t-59.5 -144l-18 -99h273l-25 -143h-272l-171 -977h-167l171 977h-454l-171 -977h-167l171 977h-158l24 143 h158l15 78q32 187 126 272q93 86 263 86h156z" />
<glyph horiz-adv-x="0" />
<glyph unicode="&#xd;" horiz-adv-x="682" />
<glyph unicode=" "  horiz-adv-x="585" />
<glyph unicode="&#x09;" horiz-adv-x="585" />
<glyph unicode="&#xa0;" horiz-adv-x="585" />
<glyph unicode="!" horiz-adv-x="738" d="M408 1493h182l-115 -655l-81 -357h-146l45 357zM192 254h182l-44 -254h-184z" />
<glyph unicode="&#x22;" horiz-adv-x="847" d="M330 1493v-555h-153v555h153zM670 1493v-555h-152v555h152z" />
<glyph unicode="#" horiz-adv-x="1544" d="M807 1470l-93 -415h262l95 415h144l-93 -415h303l-35 -154h-303l-74 -334h306l-32 -153h-309l-93 -414h-144l92 414h-263l-93 -414h-145l94 414h-297l33 153h297l76 334h-303l35 154h303l92 415h145zM942 901h-262l-75 -334h263z" />
<glyph unicode="$" d="M540 145q125 6 198 70.5t73 167.5q0 84 -46 130t-149 65zM630 1180q-119 -14 -186.5 -78t-67.5 -164q0 -70 43 -109.5t140 -58.5zM1050 1262l-30 -181q-78 46 -153 71t-146 27l-76 -427q166 -29 253 -115t87 -221q0 -175 -129 -289.5t-342 -126.5l-53 -301h-90l53 301 q-104 3 -196 26.5t-167 65.5l31 184q83 -62 173 -96t185 -38l79 456q-170 36 -247.5 110.5t-77.5 200.5q0 166 124 281t326 133l43 233h90l-40 -233q81 -3 158 -18.5t145 -42.5z" />
<glyph unicode="%" horiz-adv-x="1751" d="M433 707q-123 0 -194.5 88.5t-71.5 240.5q0 216 104.5 350t272.5 134q122 0 193.5 -89.5t71.5 -242.5q0 -214 -104.5 -347.5t-271.5 -133.5zM665 1182q0 105 -35 158t-104 53q-101 0 -158 -97t-57 -270q0 -92 36.5 -142t104.5 -50q96 0 154.5 95t58.5 253zM1439 446 q0 107 -34 160t-104 53q-99 0 -156.5 -97.5t-57.5 -270.5q0 -93 36.5 -143t104.5 -50q96 0 153.5 95t57.5 253zM1209 -29q-123 0 -194 89t-71 241q0 216 104 349.5t271 133.5q123 0 193.5 -88t70.5 -241q0 -215 -104 -349.5t-270 -134.5zM1515 1520l-1111 -1549h-144 l1112 1549h143z" />
<glyph unicode="&#x26;" horiz-adv-x="1437" d="M870 260l-383 543q-109 -88 -165 -187t-56 -202q0 -127 76.5 -204t204.5 -77q85 0 167 32.5t156 94.5zM1356 801q-40 -159 -106 -291t-159 -240l188 -270h-227l-95 139q-96 -83 -205.5 -125.5t-229.5 -42.5q-199 0 -317.5 109t-118.5 289q0 154 83.5 291t247.5 253 q-28 46 -41 93.5t-13 101.5q0 68 20.5 129t59.5 111q62 82 155.5 127t201.5 45q70 0 141 -18t144 -54l-31 -182q-68 47 -135 71.5t-130 24.5q-111 0 -181 -64.5t-70 -164.5q0 -44 17 -87t79 -131l367 -520q67 79 115 181.5t73 224.5h167z" />
<glyph unicode="'" horiz-adv-x="506" d="M330 1493v-555h-153v555h153z" />
<glyph unicode="(" horiz-adv-x="719" d="M787 1554q-239 -331 -356.5 -628.5t-117.5 -573.5q0 -158 34.5 -313.5t102.5 -308.5h-144q-83 172 -123.5 334.5t-40.5 318.5q0 297 124 588.5t374 582.5h147z" />
<glyph unicode=")" horiz-adv-x="719" d="M-114 -270q239 331 356 628.5t117 573.5q0 158 -33.5 313.5t-102.5 308.5h144q83 -173 123.5 -334t40.5 -317q0 -298 -124.5 -591.5t-373.5 -581.5h-147z" />
<glyph unicode="*" horiz-adv-x="921" d="M867 1247l-323 -194l323 -195l-53 -98l-302 203v-377h-102v377l-303 -203l-52 98l323 195l-323 194l52 99l303 -203v377h102v-377l302 203z" />
<glyph unicode="+" horiz-adv-x="1544" d="M848 1284v-557h501v-170h-501v-557h-151v557h-502v170h502v557h151z" />
<glyph unicode="," horiz-adv-x="585" d="M166 254h190l-30 -172l-204 -320h-117l130 320z" />
<glyph unicode="-" horiz-adv-x="665" d="M112 643h486l-28 -164h-487z" />
<glyph unicode="." horiz-adv-x="585" d="M151 254h190l-44 -254h-190z" />
<glyph unicode="/" horiz-adv-x="621" d="M626 1493h161l-763 -1683h-159z" />
<glyph unicode="0" d="M704 1520q182 0 279 -135t97 -388q0 -192 -45.5 -381.5t-127.5 -339.5q-83 -150 -196 -227.5t-250 -77.5q-177 0 -273 136t-96 387q0 190 46 380.5t129 339.5q83 150 194 228t243 78zM693 1360q-68 0 -130 -40.5t-111 -119.5q-83 -132 -132 -329.5t-49 -405.5 q0 -165 52.5 -249.5t155.5 -84.5q72 0 133 40.5t111 119.5q82 131 130 328.5t48 406.5q0 165 -52.5 249.5t-155.5 84.5z" />
<glyph unicode="1" d="M120 170h297l200 1149l-335 -72l31 174l334 72h183l-232 -1323h296l-29 -170h-775z" />
<glyph unicode="2" d="M850 721l-581 -553h642l-32 -168h-872l30 170l607 578q121 117 172 205.5t51 181.5q0 97 -61.5 158t-160.5 61q-85 0 -189.5 -34t-223.5 -99l34 200q111 49 212.5 74t188.5 25q176 0 283.5 -104t107.5 -273q0 -114 -51 -217.5t-157 -204.5z" />
<glyph unicode="3" d="M292 1456q99 32 192 48t183 16q178 0 282.5 -88t104.5 -236q0 -145 -82.5 -249t-227.5 -142q114 -36 167 -112t53 -201q0 -120 -52 -225t-149 -181q-74 -58 -176.5 -86.5t-236.5 -28.5q-84 0 -170.5 18.5t-175.5 55.5l33 191q85 -52 170.5 -77.5t175.5 -25.5 q178 0 288 101.5t110 263.5q0 104 -70 160.5t-201 56.5h-156l28 164h165q150 0 235.5 76t85.5 206q0 94 -63 145.5t-177 51.5q-86 0 -176.5 -20.5t-187.5 -61.5z" />
<glyph unicode="4" d="M793 1493h229l-172 -973h191l-29 -168h-192l-60 -352h-181l61 352h-607l35 195zM809 1317l-599 -797h459z" />
<glyph unicode="5" d="M1071 1493l-28 -168h-556l-65 -369q42 15 84.5 22t86.5 7q186 0 294 -111t108 -301q0 -133 -55 -255t-157 -214q-72 -64 -176 -98.5t-227 -34.5q-81 0 -165.5 16t-177.5 48l33 188q83 -45 166.5 -67.5t167.5 -22.5q176 0 290.5 117t114.5 293q0 130 -75 202t-210 72 q-71 0 -148 -18.5t-158 -55.5l130 750h723z" />
<glyph unicode="6" d="M846 553q0 127 -58.5 200.5t-159.5 73.5q-139 0 -234 -119.5t-95 -295.5q0 -132 58 -206.5t161 -74.5q140 0 234 122.5t94 299.5zM1091 1458l-31 -184q-52 38 -119.5 58t-144.5 20q-186 0 -299 -130t-169 -407q66 85 153 128.5t188 43.5q164 0 262 -105.5t98 -283.5 q0 -146 -48.5 -271.5t-139.5 -220.5q-63 -65 -147 -100t-178 -35q-186 0 -293 131t-107 359q0 212 49 408.5t137 340.5q93 152 225 231t291 79q70 0 138.5 -15.5t134.5 -46.5z" />
<glyph unicode="7" d="M236 1493h920l-17 -86l-768 -1407h-200l726 1323h-691z" />
<glyph unicode="8" d="M820 453q0 113 -71 184.5t-187 71.5q-140 0 -231.5 -93.5t-91.5 -236.5q0 -114 70 -181t189 -67q141 0 231.5 91t90.5 231zM913 1149q0 95 -63 153t-168 58q-123 0 -202.5 -77t-79.5 -193q0 -100 62.5 -161t165.5 -61q124 0 204.5 79.5t80.5 201.5zM789 786 q102 -43 156 -130t54 -210q0 -207 -144 -341t-372 -134q-193 0 -307.5 105.5t-114.5 281.5q0 160 98 284.5t256 158.5q-95 36 -144.5 111.5t-49.5 183.5q0 181 135.5 302.5t343.5 121.5q174 0 283.5 -98.5t109.5 -250.5q0 -132 -81.5 -235.5t-222.5 -149.5z" />
<glyph unicode="9" d="M81 33l33 184q52 -38 119 -58t143 -20q186 0 300 131t170 408q-67 -85 -154.5 -129.5t-188.5 -44.5q-164 0 -260.5 105.5t-96.5 283.5q0 146 47.5 271.5t140.5 219.5q63 66 145.5 101t176.5 35q186 0 294 -131.5t108 -358.5q0 -211 -50 -408t-138 -341 q-93 -152 -224.5 -231t-291.5 -79q-70 0 -138.5 15.5t-134.5 46.5zM326 940q0 -127 59.5 -201.5t159.5 -74.5q140 0 234.5 119t94.5 296q0 132 -58.5 206.5t-161.5 74.5q-139 0 -233.5 -121.5t-94.5 -298.5z" />
<glyph unicode=":" horiz-adv-x="621" d="M282 1059h190l-44 -254h-190zM140 254h190l-45 -254h-190z" />
<glyph unicode=";" horiz-adv-x="621" d="M162 254h190l-32 -172l-202 -320h-116l128 320zM302 1059h190l-44 -254h-190z" />
<glyph unicode="&#x3c;" horiz-adv-x="1544" d="M1349 1008l-929 -367l929 -365v-182l-1154 465v166l1154 465v-182z" />
<glyph unicode="=" horiz-adv-x="1544" d="M195 930h1154v-168h-1154v168zM195 522h1154v-170h-1154v170z" />
<glyph unicode="&#x3e;" horiz-adv-x="1544" d="M195 1008v182l1154 -465v-166l-1154 -465v182l927 365z" />
<glyph unicode="?" horiz-adv-x="978" d="M459 254l-44 -254h-183l44 254h183zM260 1407q92 57 183.5 85t186.5 28q145 0 228.5 -75t83.5 -204q0 -103 -48 -193t-157 -188l-93 -84q-76 -66 -101 -113t-42 -139l-22 -123h-171l28 154q16 94 51 159.5t135 157.5l95 89q76 70 106.5 123t30.5 110q0 76 -49 119 t-135 43q-72 0 -161 -35.5t-182 -101.5z" />
<glyph unicode="@" horiz-adv-x="1843" d="M1128 238q-62 -74 -134.5 -112t-151.5 -38q-132 0 -219 99t-87 251q0 220 134 384.5t313 164.5q83 0 148 -40t100 -111l25 131h128l-128 -738q159 28 261.5 180t102.5 361q0 233 -148.5 380.5t-384.5 147.5q-160 0 -309.5 -62.5t-263.5 -176.5q-131 -134 -203.5 -310 t-72.5 -360q0 -261 157 -431.5t400 -170.5q116 0 228.5 43.5t235.5 136.5l74 -114q-122 -102 -262.5 -154.5t-289.5 -52.5q-290 0 -482 214t-192 541q0 225 94 435.5t263 363.5q126 114 288 177t332 63q288 0 477.5 -189t189.5 -473q0 -295 -183 -491.5t-467 -202.5z M985 846q-127 0 -216 -111.5t-89 -267.5q0 -112 51.5 -175t142.5 -63q128 0 214 114t86 280q0 102 -51.5 162.5t-137.5 60.5z" />
<glyph unicode="A" horiz-adv-x="1260" d="M679 1493h206l249 -1493h-190l-56 383h-604l-190 -383h-192zM744 1294l-377 -743h493z" />
<glyph unicode="B" horiz-adv-x="1264" d="M311 1493h465q189 0 282.5 -78t93.5 -235q0 -144 -80.5 -248.5t-211.5 -126.5q112 -28 168 -107t56 -211q0 -225 -150 -356t-410 -131h-474zM356 713l-96 -547h293q164 0 253.5 84t89.5 237q0 118 -59 172t-190 54h-291zM463 1327l-80 -450h271q145 0 226.5 70t81.5 194 q0 97 -55 141.5t-175 44.5h-269z" />
<glyph unicode="C" horiz-adv-x="1287" d="M1281 1378l-37 -213q-87 97 -183.5 144t-209.5 47q-153 0 -270 -82t-201 -250q-54 -108 -82.5 -228.5t-28.5 -242.5q0 -204 95 -311t276 -107q125 0 240 44.5t224 133.5l-42 -239q-107 -51 -216.5 -77t-219.5 -26q-258 0 -403.5 156t-145.5 434q0 178 55.5 350t159.5 314 q109 151 250 223t328 72q116 0 219 -35.5t192 -106.5z" />
<glyph unicode="D" horiz-adv-x="1419" d="M311 1493h391q311 0 470 -146.5t159 -435.5q0 -191 -60.5 -367.5t-166.5 -297.5q-107 -124 -271.5 -185t-389.5 -61h-393zM464 1327l-202 -1161h238q305 0 472 195t167 550q0 215 -108 315.5t-338 100.5h-229z" />
<glyph unicode="E" horiz-adv-x="1164" d="M311 1493h850l-30 -170h-668l-78 -442h642l-30 -170h-641l-94 -541h684l-30 -170h-866z" />
<glyph unicode="F" horiz-adv-x="1060" d="M311 1493h771l-30 -170h-589l-78 -440h533l-30 -170h-532l-126 -713h-180z" />
<glyph unicode="G" horiz-adv-x="1428" d="M1006 223l70 391h-298l28 166h476l-116 -657q-119 -73 -260.5 -112.5t-284.5 -39.5q-253 0 -395.5 156t-142.5 434q0 231 86.5 439.5t240.5 347.5q96 87 210 129.5t254 42.5q126 0 241.5 -35.5t220.5 -106.5l-36 -215q-81 94 -190 143.5t-232 49.5q-144 0 -252.5 -60.5 t-194.5 -187.5q-73 -108 -115 -254.5t-42 -298.5q0 -209 96.5 -314.5t287.5 -105.5q95 0 184.5 22.5t163.5 65.5z" />
<glyph unicode="H" horiz-adv-x="1386" d="M311 1493h183l-107 -612h660l107 612h182l-261 -1493h-183l125 711h-660l-125 -711h-182z" />
<glyph unicode="I" horiz-adv-x="543" d="M311 1493h183l-262 -1493h-182z" />
<glyph unicode="J" horiz-adv-x="543" d="M308 1493h182l-243 -1389q-48 -271 -161 -392.5t-316 -121.5h-72l29 170h57q122 0 185 77t96 267z" />
<glyph unicode="K" horiz-adv-x="1208" d="M311 1493h183l-111 -629l706 629h242l-798 -713l584 -780h-221l-537 727l-127 -727h-182z" />
<glyph unicode="L" horiz-adv-x="1026" d="M310 1493h182l-230 -1325h654l-30 -168h-836z" />
<glyph unicode="M" horiz-adv-x="1590" d="M311 1493h273l157 -1006l520 1006h280l-262 -1493h-177l229 1309l-527 -1022h-178l-171 1026l-228 -1313h-177z" />
<glyph unicode="N" horiz-adv-x="1378" d="M311 1493h245l371 -1280l225 1280h177l-262 -1493h-245l-370 1288l-225 -1288h-177z" />
<glyph unicode="O" horiz-adv-x="1450" d="M841 1356q-150 0 -264 -80.5t-199 -245.5q-54 -105 -82.5 -223t-28.5 -238q0 -208 89.5 -321t253.5 -113q148 0 263.5 81.5t197.5 242.5q55 108 84 226.5t29 236.5q0 207 -90 320.5t-253 113.5zM605 -29q-248 0 -389.5 163t-141.5 446q0 162 55 331t153 301 q114 155 254.5 231.5t309.5 76.5q247 0 389 -161.5t142 -440.5q0 -172 -54 -338t-155 -301q-115 -156 -254 -232t-309 -76z" />
<glyph unicode="P" horiz-adv-x="1111" d="M311 1493h421q183 0 279.5 -95t96.5 -278q0 -246 -142 -383t-400 -137h-228l-106 -600h-182zM464 1327l-97 -561h229q155 0 237.5 88t82.5 252q0 105 -56 163t-158 58h-238z" />
<glyph unicode="Q" horiz-adv-x="1450" d="M665 -27q-10 -1 -20.5 -1.5t-32.5 -0.5q-252 0 -394 160.5t-142 443.5q0 167 54 335t152 302q112 154 253 231t311 77q247 0 389 -161.5t142 -440.5q0 -301 -148.5 -551t-387.5 -353l182 -278h-203zM841 1356q-150 0 -264 -80.5t-199 -245.5q-54 -105 -82.5 -223 t-28.5 -238q0 -208 89.5 -321t253.5 -113q148 0 263.5 81.5t197.5 242.5q55 108 84 226.5t29 236.5q0 207 -90 320.5t-253 113.5z" />
<glyph unicode="R" horiz-adv-x="1280" d="M464 1327l-91 -530h234q137 0 222 84.5t85 220.5q0 109 -57 167t-164 58h-229zM798 717q58 -15 96 -74t89 -235l114 -408h-192l-105 383q-40 148 -93.5 198t-162.5 50h-201l-111 -631h-182l261 1493h410q186 0 285.5 -93.5t99.5 -269.5q0 -156 -84.5 -270t-223.5 -143z " />
<glyph unicode="S" horiz-adv-x="1170" d="M1112 1444l-36 -197q-90 54 -180 81.5t-173 27.5q-163 0 -259.5 -79t-96.5 -210q0 -72 35.5 -110.5t183.5 -82.5l109 -30q184 -53 256 -134.5t72 -228.5q0 -226 -159.5 -368t-420.5 -142q-107 0 -215 23.5t-217 71.5l37 208q100 -69 200 -104t200 -35q170 0 273 84 t103 219q0 90 -41 136.5t-176 84.5l-109 31q-187 54 -254.5 124.5t-67.5 197.5q0 223 154 365.5t402 142.5q96 0 190.5 -19t189.5 -57z" />
<glyph unicode="T" horiz-adv-x="1125" d="M109 1493h1137l-29 -170h-480l-230 -1323h-183l230 1323h-475z" />
<glyph unicode="U" horiz-adv-x="1349" d="M285 1493h183l-158 -907q-10 -61 -14 -100.5t-4 -69.5q0 -138 69 -209.5t203 -71.5q174 0 271 106t138 345l158 907h183l-162 -932q-53 -302 -201.5 -446t-406.5 -144q-202 0 -319.5 112.5t-117.5 305.5q0 35 4.5 78.5t13.5 93.5z" />
<glyph unicode="V" horiz-adv-x="1260" d="M380 0l-236 1493h178l196 -1284l652 1284h198l-777 -1493h-211z" />
<glyph unicode="W" horiz-adv-x="1822" d="M177 1493h177l64 -1270l507 1270h203l66 -1270l502 1270h184l-598 -1493h-228l-62 1245l-503 -1245h-229z" />
<glyph unicode="X" horiz-adv-x="1262" d="M253 1493h183l231 -539l417 539h212l-554 -713l334 -780h-182l-271 629l-491 -629h-211l628 803z" />
<glyph unicode="Y" horiz-adv-x="1125" d="M116 1493h195l251 -614l479 614h205l-610 -782l-124 -711h-182l124 711z" />
<glyph unicode="Z" horiz-adv-x="1262" d="M241 1493h1055l-26 -154l-1041 -1169h856l-28 -170h-1097l26 154l1041 1169h-815z" />
<glyph unicode="[" horiz-adv-x="719" d="M392 1556h382l-26 -143h-215l-269 -1540h215l-24 -143h-381z" />
<glyph unicode="\" horiz-adv-x="621" d="M310 1493l173 -1683h-151l-175 1683h153z" />
<glyph unicode="]" horiz-adv-x="719" d="M630 1556l-319 -1826h-381l24 143h215l269 1540h-213l23 143h382z" />
<glyph unicode="^" horiz-adv-x="1544" d="M860 1493l489 -557h-181l-396 395l-396 -395h-181l489 557h176z" />
<glyph unicode="_" horiz-adv-x="921" d="M940 -340v-143h-958v143h958z" />
<glyph unicode="`" horiz-adv-x="921" d="M527 1638l189 -374h-139l-227 374h177z" />
<glyph unicode="a" horiz-adv-x="1129" d="M990 639l-112 -639h-166l30 170q-72 -100 -165.5 -149.5t-207.5 -49.5q-129 0 -211 87.5t-82 224.5q0 196 140.5 310t388.5 114h230l9 49q2 8 3 17.5t1 29.5q0 89 -65.5 138.5t-183.5 49.5q-81 0 -166 -23t-175 -69l29 170q94 39 183.5 58.5t173.5 19.5q178 0 271 -86 t93 -250q0 -33 -4.5 -77.5t-13.5 -94.5zM811 563h-166q-203 0 -300.5 -60.5t-97.5 -187.5q0 -88 49.5 -138t138.5 -50q135 0 235.5 107.5t133.5 287.5z" />
<glyph unicode="b" horiz-adv-x="1170" d="M913 684q0 145 -60 227t-165 82q-77 0 -144 -41.5t-116 -120.5q-53 -83 -83 -192.5t-30 -218.5q0 -138 59 -216.5t162 -78.5q79 0 145.5 40.5t116.5 119.5q52 82 83.5 191t31.5 208zM398 950q61 92 153.5 144.5t192.5 52.5q155 0 246.5 -116t91.5 -314q0 -162 -53.5 -314 t-152.5 -270q-65 -78 -149.5 -120t-177.5 -42q-98 0 -170 50t-117 149l-30 -170h-165l272 1556h166z" />
<glyph unicode="c" horiz-adv-x="1013" d="M988 1077l-33 -182q-59 48 -126.5 72t-139.5 24q-79 0 -150.5 -31t-120.5 -88q-77 -87 -119.5 -204t-42.5 -242q0 -151 68 -225t207 -74q68 0 145 23t161 69l-31 -182q-72 -33 -148.5 -49.5t-156.5 -16.5q-200 0 -308 111.5t-108 318.5q0 174 56 320.5t167 263.5 q75 80 177 121t222 41q71 0 140 -17.5t141 -52.5z" />
<glyph unicode="d" horiz-adv-x="1170" d="M770 168q-66 -97 -157 -147t-202 -50q-151 0 -238.5 114.5t-87.5 313.5q0 166 53 316.5t154 269.5q66 79 150 120.5t175 41.5q98 0 172 -52t115 -149l108 610h166l-273 -1556h-166zM256 432q0 -145 59 -226t164 -81q77 0 143 41.5t117 122.5q53 84 83.5 194t30.5 217 q0 139 -59 217t-162 78q-78 0 -146 -41t-115 -118q-52 -83 -83.5 -193t-31.5 -211z" />
<glyph unicode="e" horiz-adv-x="1134" d="M886 660q3 16 4.5 33t1.5 34q0 122 -64.5 193t-175.5 71q-123 0 -217.5 -86.5t-142.5 -245.5zM1030 516h-770q-5 -38 -7 -60t-2 -38q0 -139 77 -215t217 -76q108 0 204.5 27t179.5 79l-32 -182q-89 -40 -184 -60t-193 -20q-210 0 -322.5 111.5t-112.5 316.5 q0 175 56 325.5t165 268.5q70 74 167 114t206 40q171 0 272 -114t101 -306q0 -46 -5.5 -98.5t-16.5 -112.5z" />
<glyph unicode="f" horiz-adv-x="648" d="M881 1556l-26 -153h-158q-90 0 -131 -39.5t-61 -144.5l-18 -99h273l-25 -143h-272l-171 -977h-167l172 977h-158l23 143h158l14 78q34 198 120 278t270 80h157z" />
<glyph unicode="g" horiz-adv-x="1170" d="M1099 1120l-172 -981q-49 -285 -189 -425t-377 -140q-87 0 -162 14.5t-140 44.5l31 179q61 -44 129.5 -65t145.5 -21q158 0 259 95.5t134 274.5l14 84q-69 -88 -161 -134t-198 -46q-153 0 -240.5 112.5t-87.5 309.5q0 155 53 303.5t149 263.5q64 76 149 117t178 41 q102 0 177.5 -52.5t112.5 -148.5l28 174h167zM850 709q0 136 -58 210t-164 74q-66 0 -125 -29t-102 -81q-68 -86 -106.5 -202.5t-38.5 -240.5q0 -138 58.5 -212t167.5 -74q157 0 262.5 158.5t105.5 396.5z" />
<glyph unicode="h" horiz-adv-x="1168" d="M1027 676l-118 -676h-167l118 669q8 47 13 83t5 57q0 84 -48 131t-133 47q-134 0 -231.5 -100t-126.5 -266l-109 -621h-165l273 1556h165l-107 -612q63 94 161 148.5t206 54.5q133 0 206.5 -80t73.5 -225q0 -36 -4 -77t-12 -89z" />
<glyph unicode="i" horiz-adv-x="512" d="M338 1556h165l-40 -233h-166zM262 1120h166l-198 -1120h-165z" />
<glyph unicode="j" horiz-adv-x="512" d="M267 1120h166l-199 -1140l-1 -5q-33 -191 -76 -262q-41 -67 -119 -103t-184 -36h-62l27 156h42q98 0 138.5 45t68.5 205zM345 1556h165l-40 -233h-166z" />
<glyph unicode="k" horiz-adv-x="1067" d="M338 1556h165l-158 -907l568 471h215l-634 -536l463 -584h-201l-430 547l-96 -547h-165z" />
<glyph unicode="l" horiz-adv-x="512" d="M338 1556h165l-273 -1556h-165z" />
<glyph unicode="m" horiz-adv-x="1795" d="M1655 676l-118 -676h-165l116 670q7 43 10.5 74t3.5 53q0 90 -45 140t-126 50q-121 0 -215 -100.5t-122 -261.5l-111 -625h-166l118 670q7 37 11 68.5t4 56.5q0 91 -45 141.5t-125 50.5q-122 0 -216.5 -100.5t-122.5 -261.5l-111 -625h-165l197 1120h166l-32 -174 q68 98 158 149.5t194 51.5q110 0 180.5 -64t84.5 -178q76 118 175.5 180t210.5 62q129 0 200 -83t71 -235q0 -33 -4 -72.5t-11 -80.5z" />
<glyph unicode="n" horiz-adv-x="1168" d="M1027 676l-118 -676h-167l118 669q8 47 13 83t5 57q0 84 -48 131t-133 47q-134 0 -230 -98.5t-126 -267.5l-111 -621h-165l195 1120h166l-34 -176q70 97 167 150t204 53q133 0 206.5 -80t73.5 -225q0 -36 -4 -77t-12 -89z" />
<glyph unicode="o" horiz-adv-x="1127" d="M468 -29q-177 0 -280 121.5t-103 331.5q0 122 35.5 248.5t91.5 212.5q90 134 199.5 198t248.5 64q172 0 277.5 -119t105.5 -311q0 -133 -35 -265t-92 -219q-88 -134 -198 -198t-250 -64zM256 430q0 -152 57.5 -227.5t173.5 -75.5q166 0 275.5 161.5t109.5 409.5 q0 145 -58.5 219t-171.5 74q-94 0 -167 -48.5t-130 -147.5q-43 -74 -66 -169t-23 -196z" />
<glyph unicode="p" horiz-adv-x="1170" d="M914 690q0 147 -57.5 225t-165.5 78q-74 0 -141 -42t-119 -122q-51 -79 -81.5 -191t-30.5 -222q0 -140 57.5 -215.5t163.5 -75.5q78 0 145 41t115 119q51 82 82.5 193t31.5 212zM401 950q67 97 157.5 147t201.5 50q154 0 239.5 -112.5t85.5 -315.5q0 -166 -53 -316.5 t-153 -269.5q-66 -79 -150 -120.5t-176 -41.5q-107 0 -180 49.5t-109 147.5l-104 -594h-165l271 1546h165z" />
<glyph unicode="q" horiz-adv-x="1170" d="M769 168q-67 -97 -157.5 -147t-200.5 -50q-153 0 -239.5 114.5t-86.5 315.5q0 162 53.5 313t153.5 271q64 78 148.5 120t176.5 42q112 0 184 -49t104 -148l29 168h167l-269 -1540h-167zM256 428q0 -148 56 -225.5t161 -77.5q157 0 267.5 166.5t110.5 404.5 q0 144 -57 220.5t-164 76.5q-78 0 -145 -40.5t-116 -118.5q-52 -82 -82.5 -192t-30.5 -214z" />
<glyph unicode="r" horiz-adv-x="757" d="M822 950q-26 15 -58 23t-69 8q-133 0 -232 -111.5t-131 -298.5l-102 -571h-165l197 1120h166l-32 -174q66 97 157 149t195 52q27 0 53 -3.5t52 -11.5z" />
<glyph unicode="s" horiz-adv-x="960" d="M922 1087l-32 -174q-66 40 -138.5 60t-150.5 20q-130 0 -205.5 -49.5t-75.5 -134.5q0 -99 175 -152q13 -4 20 -6l53 -18q166 -51 221 -107t55 -153q0 -178 -127 -290t-334 -112q-80 0 -168 17t-194 53l32 190q91 -52 179 -79t169 -27q122 0 198 58t76 147q0 96 -200 155 l-17 5l-57 16q-126 37 -184.5 97.5t-58.5 154.5q0 179 121 284t329 105q82 0 160 -15t154 -45z" />
<glyph unicode="t" horiz-adv-x="722" d="M779 1120l-25 -143h-330l-107 -608q-6 -34 -8.5 -57t-2.5 -36q0 -64 34.5 -93t111.5 -29h167l-28 -154h-158q-148 0 -220.5 64t-72.5 194q0 23 3 50.5t8 60.5l107 608h-140l26 143h138l56 318h165l-55 -318h331z" />
<glyph unicode="u" horiz-adv-x="1168" d="M123 444l118 676h167l-118 -669q-9 -49 -13 -84t-4 -58q0 -85 46.5 -131.5t132.5 -46.5q133 0 230 100t127 269l111 620h165l-195 -1120h-166l34 176q-70 -98 -167 -151.5t-206 -53.5q-132 0 -206 80.5t-74 224.5q0 30 4.5 75t13.5 93z" />
<glyph unicode="v" horiz-adv-x="1090" d="M132 1120h176l147 -952l483 952h175l-573 -1120h-223z" />
<glyph unicode="w" horiz-adv-x="1507" d="M157 1120h163l43 -901l376 901h192l55 -901l358 901h165l-461 -1120h-193l-49 928l-386 -928h-195z" />
<glyph unicode="x" horiz-adv-x="1090" d="M1106 1120l-462 -549l283 -571h-190l-213 444l-371 -444h-201l496 590l-264 530h190l194 -405l337 405h201z" />
<glyph unicode="y" horiz-adv-x="1090" d="M457 -104q-115 -215 -187.5 -268.5t-184.5 -53.5h-131l28 154h95q70 0 118.5 42t108.5 164l52 107l-224 1079h176l167 -858l463 858h174z" />
<glyph unicode="z" horiz-adv-x="967" d="M214 1120h787l-30 -168l-759 -805h627l-26 -147h-818l29 168l759 805h-595z" />
<glyph unicode="{" d="M1115 1556l-26 -143h-69q-123 0 -165 -39.5t-70 -189.5l-46 -252q-29 -160 -83.5 -232.5t-154.5 -93.5q66 -18 102.5 -69.5t36.5 -126.5q0 -24 -3.5 -57t-10.5 -71l-42 -244q-4 -31 -6.5 -57.5t-2.5 -50.5q0 -63 38.5 -91.5t125.5 -28.5h70l-26 -144h-64 q-169 0 -242 54.5t-73 177.5q0 32 3 66t10 71l40 235q0 3 2 12q9 50 9 95q0 85 -44 122.5t-146 37.5h-55l25 147h56q130 0 187 54.5t86 205.5l42 244q24 123 55.5 194.5t81.5 110.5q41 34 103.5 48.5t181.5 14.5h74z" />
<glyph unicode="|" horiz-adv-x="621" d="M387 1565v-2048h-153v2048h153z" />
<glyph unicode="}" d="M13 -334l26 144h70q122 0 164.5 39.5t69.5 189.5l46 252q29 160 83 232.5t154 92.5q-65 19 -101 70t-36 127q0 25 3 57t9 70l43 243q5 34 7 59t2 50q0 64 -38.5 92.5t-125.5 28.5h-70l24 143h67q168 0 241 -54t73 -177q0 -31 -3 -65t-10 -73l-41 -235q0 -3 -1 -12 q-9 -49 -9 -94q0 -86 44 -123t146 -37h55l-26 -147h-55q-130 0 -187 -55t-83 -205l-47 -244q-24 -126 -55.5 -196.5t-78.5 -108.5q-43 -34 -105 -49t-182 -15h-73z" />
<glyph unicode="~" horiz-adv-x="1544" d="M1349 817v-178q-94 -79 -174.5 -113t-168.5 -34q-99 0 -230 59l-15 6q-6 3 -19 8q-140 62 -224 62q-80 0 -157 -38.5t-166 -121.5v178q95 79 175.5 113.5t167.5 34.5q99 0 232 -60q8 -4 13 -6q7 -3 20 -8q139 -62 224 -62q77 0 153 38t169 122z" />
<glyph unicode="&#xa1;" horiz-adv-x="738" d="M339 -373h-182l114 655l81 357h146l-44 -357zM554 866h-181l44 254h184z" />
<glyph unicode="&#xa2;" d="M682 985q-160 -23 -268 -183.5t-108 -375.5q0 -134 55 -207.5t170 -93.5zM800 1145q66 -7 124 -23.5t114 -44.5l-32 -182q-42 37 -98 59.5t-136 34.5l-151 -862q59 5 126 27.5t141 64.5l-31 -182q-59 -28 -124.5 -44.5t-134.5 -21.5l-54 -284h-90l53 284 q-178 13 -274 124.5t-96 305.5q0 306 159 513.5t413 230.5l51 285h90z" />
<glyph unicode="&#xa3;" d="M1174 1460l-31 -182q-55 40 -114 61t-116 21q-133 0 -199.5 -79.5t-103.5 -287.5l-37 -215h352l-26 -143h-352l-81 -465h484l-30 -170h-876l30 170h211l82 465h-179l26 143h178l41 238q47 262 164.5 383t325.5 121q63 0 126 -15t125 -45z" />
<glyph unicode="&#xa4;" d="M802 993l186 209l103 -115l-186 -206q34 -59 50 -118.5t16 -121.5q0 -63 -17 -120.5t-53 -114.5l188 -207l-103 -113l-186 207q-53 -40 -105 -59t-107 -19q-52 0 -106 18.5t-109 55.5l-187 -207l-101 115l186 206q-33 62 -50 121t-17 117q0 64 17 122t52 114l-187 206 l104 115l186 -207q50 39 102 57.5t110 18.5q54 0 106.5 -18t107.5 -56zM830 643q0 112 -70 189t-172 77q-101 0 -172 -77t-71 -189q0 -114 70.5 -192t172.5 -78q101 0 171.5 78.5t70.5 191.5z" />
<glyph unicode="&#xa5;" d="M1010 455h-370l-79 -455h-183l79 455h-374l21 123h375l10 51l-49 155h-300l22 123h239l-183 586h171l216 -700l461 700h174l-387 -586h236l-22 -123h-295l-102 -155l-8 -51h368z" />
<glyph unicode="&#xa6;" horiz-adv-x="621" d="M387 408v-758h-153v758h153zM387 1432v-758h-153v758h153z" />
<glyph unicode="&#xa7;" horiz-adv-x="921" d="M542 410q74 49 112.5 104.5t38.5 112.5q0 54 -48 110.5t-177 147.5l-72 51q-73 -51 -111 -107t-38 -112q0 -50 38 -98.5t151 -131.5zM894 1462l-29 -164q-65 39 -126.5 58.5t-113.5 19.5q-93 0 -152.5 -48.5t-59.5 -121.5q0 -79 122 -169q27 -20 42 -31l79 -60 q110 -85 148 -143.5t38 -128.5q0 -101 -59 -191t-162 -143q37 -35 55.5 -80t18.5 -100q0 -157 -109.5 -256t-288.5 -99q-62 0 -131.5 14.5t-143.5 43.5l29 164q69 -38 133.5 -58t117.5 -20q101 0 161.5 47.5t60.5 126.5q0 98 -162 219l-14 10l-68 51q-111 84 -148 140.5 t-37 130.5q0 96 58 182.5t164 149.5q-39 38 -56.5 78.5t-17.5 91.5q0 147 109.5 245.5t277.5 98.5q64 0 129 -14.5t135 -43.5z" />
<glyph unicode="&#xa8;" horiz-adv-x="921" d="M374 1552h185l-37 -202h-183zM726 1552h183l-35 -202h-183z" />
<glyph unicode="&#xa9;" horiz-adv-x="1843" d="M922 1485q136 0 254.5 -55t216.5 -164t146.5 -240t48.5 -285q0 -152 -48.5 -282.5t-146.5 -239.5t-216.5 -164t-254.5 -55q-137 0 -255.5 55t-216.5 164t-146.5 239.5t-48.5 282.5q0 154 48.5 285t146.5 240t216.5 164t255.5 55zM922 1382q-118 0 -220 -47t-186 -141 q-85 -94 -128 -208.5t-43 -244.5q0 -129 43 -242.5t128 -207.5q84 -94 186 -141.5t220 -47.5t220.5 47.5t186.5 141.5q84 93 126 206t42 244q0 133 -42.5 246.5t-125.5 206.5q-84 94 -186.5 141t-220.5 47zM1191 1137v-129q-60 33 -118.5 49t-117.5 16q-134 0 -209.5 -87.5 t-75.5 -244.5q0 -159 77 -246t217 -87q58 0 112.5 15.5t114.5 49.5v-127q-61 -29 -122.5 -43t-124.5 -14q-194 0 -307 122t-113 330q0 209 113 330t307 121q66 0 127 -14t120 -41z" />
<glyph unicode="&#xaa;" horiz-adv-x="868" d="M535 1104q-142 0 -205.5 -37.5t-63.5 -120.5q0 -59 34 -94t92 -35q104 0 174.5 67.5t95.5 190.5l5 29h-132zM813 1165l-79 -448h-135l20 112q-52 -65 -121 -98t-155 -33q-96 0 -155 61t-59 161q0 140 104 219.5t291 79.5h164v4q1 19 2 29.5t1 17.5q0 70 -41.5 102.5 t-131.5 32.5q-64 0 -129 -17t-131 -51l22 127q71 28 139.5 42t129.5 14q135 0 204 -62t69 -182q0 -27 -2.5 -54.5t-6.5 -56.5zM94 592h620l-21 -123h-619z" />
<glyph unicode="&#xab;" horiz-adv-x="1137" d="M623 1059l-35 -201l-319 -270l227 -266l-33 -181l-349 418l15 82zM1023 1059l-35 -201l-319 -270l227 -266l-34 -181l-348 418l15 82z" />
<glyph unicode="&#xac;" horiz-adv-x="1544" d="M195 862h1154v-575h-151v405h-1003v170z" />
<glyph unicode="&#xad;" horiz-adv-x="665" d="M112 643h486l-28 -164h-487z" />
<glyph unicode="&#xae;" horiz-adv-x="1843" d="M922 1382q-118 0 -220 -47t-186 -141q-85 -94 -128 -208.5t-43 -244.5q0 -129 43 -242.5t128 -207.5q84 -94 186 -141.5t220 -47.5t220.5 47.5t186.5 141.5q84 93 126 206t42 244q0 133 -42.5 246.5t-125.5 206.5q-84 94 -186.5 141t-220.5 47zM922 1485q136 0 254.5 -55 t216.5 -164t146.5 -240t48.5 -285q0 -152 -48.5 -282.5t-146.5 -239.5t-216.5 -164t-254.5 -55q-137 0 -255.5 55t-216.5 164t-146.5 239.5t-48.5 282.5q0 154 48.5 285t146.5 240t216.5 164t255.5 55zM897 1071h-110v-276h110q99 0 138.5 31t39.5 106q0 76 -40 107.5 t-138 31.5zM904 1174q158 0 236.5 -59.5t78.5 -180.5q0 -86 -47.5 -142t-133.5 -73q21 -8 51.5 -46.5t71.5 -111.5l123 -223h-154l-117 209q-53 96 -85.5 121.5t-81.5 25.5h-59v-356h-140v836h257z" />
<glyph unicode="&#xaf;" horiz-adv-x="921" d="M369 1526h538l-26 -148h-538z" />
<glyph unicode="&#xb0;" horiz-adv-x="921" d="M461 1391q-72 0 -121.5 -55.5t-49.5 -135.5q0 -79 49.5 -133.5t121.5 -54.5t121.5 54.5t49.5 133.5t-50 135t-121 56zM461 1520q57 0 110.5 -24.5t91.5 -70.5q42 -45 62.5 -102t20.5 -123q0 -132 -83 -223.5t-204 -91.5t-202 90t-81 225q0 134 82.5 227t202.5 93z" />
<glyph unicode="&#xb1;" horiz-adv-x="1544" d="M848 1284v-387h501v-170h-501v-387h-151v387h-502v170h502v387h151zM195 170h1154v-170h-1154v170z" />
<glyph unicode="&#xb2;" horiz-adv-x="738" d="M593 1090l-346 -308h397l-21 -114h-556l19 110l380 340q53 46 79.5 89t26.5 83q0 54 -38 87.5t-101 33.5q-50 0 -109 -17t-134 -53l22 123q69 28 130 42t119 14q111 0 179.5 -57t68.5 -146q0 -62 -28.5 -118.5t-87.5 -108.5z" />
<glyph unicode="&#xb3;" horiz-adv-x="738" d="M194 1485q74 18 131 26.5t106 8.5q113 0 180.5 -52.5t67.5 -138.5q0 -77 -51.5 -134t-138.5 -75q67 -16 103 -63t36 -119q0 -127 -100 -206t-266 -79q-58 0 -116.5 10.5t-115.5 30.5l21 121q48 -27 98.5 -40t106.5 -13q111 0 173.5 46t62.5 128q0 62 -43.5 93.5 t-131.5 31.5h-78l21 108h83q92 0 143.5 36t51.5 100q0 53 -37 79.5t-110 26.5q-51 0 -106.5 -10.5t-110.5 -30.5z" />
<glyph unicode="&#xb4;" horiz-adv-x="921" d="M783 1638h179l-359 -376h-139z" />
<glyph unicode="&#xb5;" d="M-24 -426l271 1546h166l-122 -697q-4 -21 -6.5 -47t-2.5 -52q0 -93 52.5 -143t150.5 -50q133 0 215 84t111 252l114 653h166l-151 -861q-3 -19 -4.5 -33t-1.5 -25q0 -31 11.5 -45.5t35.5 -14.5q9 0 25 5t44 18l-25 -148q-39 -22 -75 -33.5t-71 -11.5q-59 0 -93 42 t-34 116q-50 -80 -120 -119t-164 -39q-84 0 -146.5 43t-82.5 113l-97 -553h-166z" />
<glyph unicode="&#xb6;" d="M691 1493h366l-296 -1690h-125l275 1567h-172l-275 -1567h-126l147 846q-160 6 -250.5 100t-90.5 252q0 211 155 351.5t392 140.5z" />
<glyph unicode="&#xb7;" horiz-adv-x="585" d="M255 838h190l-45 -254h-190z" />
<glyph unicode="&#xb8;" horiz-adv-x="921" d="M429 0q33 -51 48 -94.5t15 -85.5q0 -100 -66 -157.5t-181 -57.5q-39 0 -77.5 6t-77.5 18l21 131q35 -16 70.5 -24t73.5 -8q54 0 86 30.5t32 83.5q0 29 -11.5 65t-39.5 93h107z" />
<glyph unicode="&#xb9;" horiz-adv-x="738" d="M140 778h184l107 611l-206 -41l20 116l207 39h130l-127 -725h185l-21 -110h-497z" />
<glyph unicode="&#xba;" horiz-adv-x="868" d="M709 1180q0 110 -44.5 167.5t-131.5 57.5q-105 0 -181 -107t-76 -258q0 -109 44.5 -168t127.5 -59q110 0 185.5 105.5t75.5 261.5zM559 1520q133 0 212.5 -86t79.5 -230q0 -220 -119.5 -363t-302.5 -143q-135 0 -213.5 90t-78.5 244q0 68 17 134.5t50 129.5 q56 106 149.5 165t205.5 59zM94 592h620l-21 -123h-619z" />
<glyph unicode="&#xbb;" horiz-adv-x="1137" d="M512 141l35 201l320 270l-227 267l35 180l347 -418l-14 -82zM114 141l35 201l317 270l-225 267l33 180l347 -418l-13 -82z" />
<glyph unicode="&#xbc;" horiz-adv-x="1786" d="M1589 710l-354 -415h280zM1589 835h149l-95 -540h123l-19 -109h-123l-33 -186h-127l33 186h-374l22 131zM140 778h184l107 611l-206 -41l20 116l207 39h130l-127 -725h185l-21 -110h-497zM1367 1520h161l-1109 -1549h-163z" />
<glyph unicode="&#xbd;" horiz-adv-x="1786" d="M140 778h184l107 611l-206 -41l20 116l207 39h130l-127 -725h185l-21 -110h-497zM1367 1520h161l-1109 -1549h-163zM1640 422l-346 -308h397l-21 -114h-556l19 110l380 340q53 46 79.5 89t26.5 83q0 54 -38 87.5t-101 33.5q-50 0 -109 -17t-134 -53l22 123q69 28 130 42 t119 14q111 0 179.5 -57t68.5 -146q0 -62 -28.5 -118.5t-87.5 -108.5z" />
<glyph unicode="&#xbe;" horiz-adv-x="1786" d="M1589 710l-354 -415h280zM1589 835h149l-95 -540h123l-19 -109h-123l-33 -186h-127l33 186h-374l22 131zM194 1485q74 18 131 26.5t106 8.5q113 0 180.5 -52.5t67.5 -138.5q0 -77 -51.5 -134t-138.5 -75q67 -16 103 -63t36 -119q0 -127 -100 -206t-266 -79 q-58 0 -116.5 10.5t-115.5 30.5l21 121q48 -27 98.5 -40t106.5 -13q111 0 173.5 46t62.5 128q0 62 -43.5 93.5t-131.5 31.5h-78l21 108h83q92 0 143.5 36t51.5 100q0 53 -37 79.5t-110 26.5q-51 0 -106.5 -10.5t-110.5 -30.5zM1367 1520h161l-1109 -1549h-163z" />
<glyph unicode="&#xbf;" horiz-adv-x="978" d="M551 866l45 254h182l-44 -254h-183zM751 -287q-93 -57 -184 -85t-187 -28q-145 0 -228.5 75t-83.5 204q0 103 48.5 193t156.5 188l92 84q77 68 102.5 115t40.5 137l23 123h171l-27 -154q-17 -94 -52 -159.5t-134 -157.5l-97 -89q-75 -70 -105.5 -123t-30.5 -110 q0 -76 49.5 -119t134.5 -43q73 0 161 35.5t182 101.5z" />
<glyph unicode="&#xc0;" horiz-adv-x="1260" d="M679 1493h206l249 -1493h-190l-56 383h-604l-190 -383h-192zM744 1294l-377 -743h493zM778 1899l133 -264h-126l-171 264h164z" />
<glyph unicode="&#xc1;" horiz-adv-x="1260" d="M679 1493h206l249 -1493h-190l-56 383h-604l-190 -383h-192zM744 1294l-377 -743h493zM892 1899h186l-276 -264h-142z" />
<glyph unicode="&#xc2;" horiz-adv-x="1260" d="M679 1493h206l249 -1493h-190l-56 383h-604l-190 -383h-192zM744 1294l-377 -743h493zM735 1901h194l142 -266h-121l-126 178l-189 -178h-135z" />
<glyph unicode="&#xc3;" horiz-adv-x="1260" d="M679 1493h206l249 -1493h-190l-56 383h-604l-190 -383h-192zM744 1294l-377 -743h493zM807 1710l-31 25l-1 1q-39 32 -73 32q-31 0 -55 -25.5t-40 -75.5h-113q32 109 87 164t132 55q31 0 58.5 -11t60.5 -36l29 -26q16 -14 33 -20.5t35 -6.5q35 0 60.5 27t35.5 73h113 q-30 -109 -86.5 -164t-138.5 -55q-28 0 -53 10.5t-53 32.5z" />
<glyph unicode="&#xc4;" horiz-adv-x="1260" d="M679 1493h206l249 -1493h-190l-56 383h-604l-190 -383h-192zM744 1294l-377 -743h493zM561 1870h183l-37 -203h-181zM913 1870h182l-35 -203h-182z" />
<glyph unicode="&#xc5;" horiz-adv-x="1260" d="M918 1626q0 63 -40 107.5t-97 44.5t-96.5 -43.5t-39.5 -108.5q0 -63 39.5 -107t96.5 -44t97 44t40 107zM634 1407q-48 37 -73.5 93.5t-25.5 125.5q0 114 72 194.5t174 80.5q103 0 175.5 -80.5t72.5 -194.5q0 -79 -33 -140t-95 -97l233 -1389h-190l-56 383h-604l-190 -383 h-192zM744 1294l-377 -743h493z" />
<glyph unicode="&#xc6;" horiz-adv-x="1795" d="M839 1335l-435 -784h412l139 784h-116zM1832 1493l-29 -170h-667l-79 -442h640l-29 -170h-641l-95 -541h684l-29 -170h-866l66 383h-474l-211 -383h-185l824 1493h1091z" />
<glyph unicode="&#xc7;" horiz-adv-x="1287" d="M1281 1378l-37 -213q-87 97 -183.5 144t-209.5 47q-153 0 -270 -82t-201 -250q-54 -108 -82.5 -228.5t-28.5 -242.5q0 -204 95 -311t276 -107q125 0 240 44.5t224 133.5l-42 -239q-107 -51 -216.5 -77t-219.5 -26q-258 0 -403.5 156t-145.5 434q0 178 55.5 350t159.5 314 q109 151 250 223t328 72q116 0 219 -35.5t192 -106.5zM672 0q33 -51 48 -94.5t15 -85.5q0 -100 -66 -157.5t-181 -57.5q-39 0 -77.5 6t-77.5 18l21 131q35 -16 70.5 -24t73.5 -8q54 0 86 30.5t32 83.5q0 29 -11.5 65t-39.5 93h107z" />
<glyph unicode="&#xc8;" horiz-adv-x="1164" d="M311 1493h850l-30 -170h-668l-78 -442h642l-30 -170h-641l-94 -541h684l-30 -170h-866zM727 1899l133 -264h-126l-171 264h164z" />
<glyph unicode="&#xc9;" horiz-adv-x="1164" d="M311 1493h850l-30 -170h-668l-78 -442h642l-30 -170h-641l-94 -541h684l-30 -170h-866zM841 1899h186l-276 -264h-142z" />
<glyph unicode="&#xca;" horiz-adv-x="1164" d="M311 1493h850l-30 -170h-668l-78 -442h642l-30 -170h-641l-94 -541h684l-30 -170h-866zM684 1901h194l142 -266h-121l-126 178l-189 -178h-135z" />
<glyph unicode="&#xcb;" horiz-adv-x="1164" d="M311 1493h850l-30 -170h-668l-78 -442h642l-30 -170h-641l-94 -541h684l-30 -170h-866zM510 1870h183l-37 -203h-181zM862 1870h182l-35 -203h-182z" />
<glyph unicode="&#xcc;" horiz-adv-x="543" d="M311 1493h183l-262 -1493h-182zM405 1899l133 -264h-126l-171 264h164z" />
<glyph unicode="&#xcd;" horiz-adv-x="543" d="M311 1493h183l-262 -1493h-182zM519 1899h186l-276 -264h-142z" />
<glyph unicode="&#xce;" horiz-adv-x="543" d="M311 1493h183l-262 -1493h-182zM362 1901h194l142 -266h-121l-126 178l-189 -178h-135z" />
<glyph unicode="&#xcf;" horiz-adv-x="543" d="M311 1493h183l-262 -1493h-182zM188 1870h183l-37 -203h-181zM540 1870h182l-35 -203h-182z" />
<glyph unicode="&#xd0;" horiz-adv-x="1428" d="M320 1493h392q310 0 469 -146.5t159 -435.5q0 -190 -60.5 -366.5t-167.5 -298.5q-108 -124 -271.5 -185t-388.5 -61h-393l122 700h-181l26 144h180zM473 1327l-84 -483h302l-26 -144h-302l-92 -534h237q306 0 473 195t167 550q0 215 -108 315.5t-338 100.5h-229z" />
<glyph unicode="&#xd1;" horiz-adv-x="1378" d="M311 1493h245l371 -1280l225 1280h177l-262 -1493h-245l-370 1288l-225 -1288h-177zM840 1710l-31 25l-1 1q-39 32 -73 32q-31 0 -55 -25.5t-40 -75.5h-113q32 109 87 164t132 55q31 0 58.5 -11t60.5 -36l29 -26q16 -14 33 -20.5t35 -6.5q35 0 60.5 27t35.5 73h113 q-30 -109 -86.5 -164t-138.5 -55q-28 0 -53 10.5t-53 32.5z" />
<glyph unicode="&#xd2;" horiz-adv-x="1450" d="M841 1356q-150 0 -264 -80.5t-199 -245.5q-54 -105 -82.5 -223t-28.5 -238q0 -208 89.5 -321t253.5 -113q148 0 263.5 81.5t197.5 242.5q55 108 84 226.5t29 236.5q0 207 -90 320.5t-253 113.5zM605 -29q-248 0 -389.5 163t-141.5 446q0 162 55 331t153 301 q114 155 254.5 231.5t309.5 76.5q247 0 389 -161.5t142 -440.5q0 -172 -54 -338t-155 -301q-115 -156 -254 -232t-309 -76zM889 1899l133 -264h-126l-171 264h164z" />
<glyph unicode="&#xd3;" horiz-adv-x="1450" d="M841 1356q-150 0 -264 -80.5t-199 -245.5q-54 -105 -82.5 -223t-28.5 -238q0 -208 89.5 -321t253.5 -113q148 0 263.5 81.5t197.5 242.5q55 108 84 226.5t29 236.5q0 207 -90 320.5t-253 113.5zM605 -29q-248 0 -389.5 163t-141.5 446q0 162 55 331t153 301 q114 155 254.5 231.5t309.5 76.5q247 0 389 -161.5t142 -440.5q0 -172 -54 -338t-155 -301q-115 -156 -254 -232t-309 -76zM1003 1899h186l-276 -264h-142z" />
<glyph unicode="&#xd4;" horiz-adv-x="1450" d="M841 1356q-150 0 -264 -80.5t-199 -245.5q-54 -105 -82.5 -223t-28.5 -238q0 -208 89.5 -321t253.5 -113q148 0 263.5 81.5t197.5 242.5q55 108 84 226.5t29 236.5q0 207 -90 320.5t-253 113.5zM605 -29q-248 0 -389.5 163t-141.5 446q0 162 55 331t153 301 q114 155 254.5 231.5t309.5 76.5q247 0 389 -161.5t142 -440.5q0 -172 -54 -338t-155 -301q-115 -156 -254 -232t-309 -76zM846 1901h194l142 -266h-121l-126 178l-189 -178h-135z" />
<glyph unicode="&#xd5;" horiz-adv-x="1450" d="M841 1356q-150 0 -264 -80.5t-199 -245.5q-54 -105 -82.5 -223t-28.5 -238q0 -208 89.5 -321t253.5 -113q148 0 263.5 81.5t197.5 242.5q55 108 84 226.5t29 236.5q0 207 -90 320.5t-253 113.5zM605 -29q-248 0 -389.5 163t-141.5 446q0 162 55 331t153 301 q114 155 254.5 231.5t309.5 76.5q247 0 389 -161.5t142 -440.5q0 -172 -54 -338t-155 -301q-115 -156 -254 -232t-309 -76zM918 1710l-31 25l-1 1q-39 32 -73 32q-31 0 -55 -25.5t-40 -75.5h-113q32 109 87 164t132 55q31 0 58.5 -11t60.5 -36l29 -26q16 -14 33 -20.5 t35 -6.5q35 0 60.5 27t35.5 73h113q-30 -109 -86.5 -164t-138.5 -55q-28 0 -53 10.5t-53 32.5z" />
<glyph unicode="&#xd6;" horiz-adv-x="1450" d="M841 1356q-150 0 -264 -80.5t-199 -245.5q-54 -105 -82.5 -223t-28.5 -238q0 -208 89.5 -321t253.5 -113q148 0 263.5 81.5t197.5 242.5q55 108 84 226.5t29 236.5q0 207 -90 320.5t-253 113.5zM605 -29q-248 0 -389.5 163t-141.5 446q0 162 55 331t153 301 q114 155 254.5 231.5t309.5 76.5q247 0 389 -161.5t142 -440.5q0 -172 -54 -338t-155 -301q-115 -156 -254 -232t-309 -76zM672 1870h183l-37 -203h-181zM1024 1870h182l-35 -203h-182z" />
<glyph unicode="&#xd7;" horiz-adv-x="1544" d="M1292 1100l-411 -459l411 -457l-107 -121l-413 459l-413 -459l-106 121l410 457l-410 459l106 121l413 -459l413 459z" />
<glyph unicode="&#xd8;" horiz-adv-x="1450" d="M1101 1235q-41 60 -106.5 90.5t-153.5 30.5q-149 0 -263.5 -81t-197.5 -243q-56 -109 -85 -228t-29 -233q0 -45 5 -88.5t16 -87.5zM1159 1116l-816 -846q46 -68 112 -101.5t155 -33.5q148 0 263.5 81.5t197.5 242.5q56 112 84.5 229.5t28.5 239.5q0 56 -6 102.5t-19 85.5 zM144 246q-35 80 -52.5 162t-17.5 167q0 166 55 334t153 303q112 154 253 231t311 77q117 0 211.5 -38.5t170.5 -115.5l182 193l81 -99l-188 -198q36 -73 54 -157.5t18 -182.5q0 -177 -53 -342.5t-154 -300.5q-115 -156 -254 -232t-309 -76q-125 0 -223 42t-166 124 l-198 -203l-81 99z" />
<glyph unicode="&#xd9;" horiz-adv-x="1349" d="M285 1493h183l-158 -907q-10 -61 -14 -100.5t-4 -69.5q0 -138 69 -209.5t203 -71.5q174 0 271 106t138 345l158 907h183l-162 -932q-53 -302 -201.5 -446t-406.5 -144q-202 0 -319.5 112.5t-117.5 305.5q0 35 4.5 78.5t13.5 93.5zM808 1899l133 -264h-126l-171 264h164z " />
<glyph unicode="&#xda;" horiz-adv-x="1349" d="M285 1493h183l-158 -907q-10 -61 -14 -100.5t-4 -69.5q0 -138 69 -209.5t203 -71.5q174 0 271 106t138 345l158 907h183l-162 -932q-53 -302 -201.5 -446t-406.5 -144q-202 0 -319.5 112.5t-117.5 305.5q0 35 4.5 78.5t13.5 93.5zM922 1899h186l-276 -264h-142z" />
<glyph unicode="&#xdb;" horiz-adv-x="1349" d="M285 1493h183l-158 -907q-10 -61 -14 -100.5t-4 -69.5q0 -138 69 -209.5t203 -71.5q174 0 271 106t138 345l158 907h183l-162 -932q-53 -302 -201.5 -446t-406.5 -144q-202 0 -319.5 112.5t-117.5 305.5q0 35 4.5 78.5t13.5 93.5zM765 1901h194l142 -266h-121l-126 178 l-189 -178h-135z" />
<glyph unicode="&#xdc;" horiz-adv-x="1349" d="M285 1493h183l-158 -907q-10 -61 -14 -100.5t-4 -69.5q0 -138 69 -209.5t203 -71.5q174 0 271 106t138 345l158 907h183l-162 -932q-53 -302 -201.5 -446t-406.5 -144q-202 0 -319.5 112.5t-117.5 305.5q0 35 4.5 78.5t13.5 93.5zM591 1870h183l-37 -203h-181zM943 1870 h182l-35 -203h-182z" />
<glyph unicode="&#xdd;" horiz-adv-x="1125" d="M116 1493h195l251 -614l479 614h205l-610 -782l-124 -711h-182l124 711zM811 1899h186l-276 -264h-142z" />
<glyph unicode="&#xde;" horiz-adv-x="1120" d="M522 338h-230l-60 -338h-182l261 1493h183l-46 -264h240q183 0 279.5 -95t96.5 -278q0 -246 -142.5 -382t-399.5 -136zM420 1063l-98 -559h229q155 0 238 87.5t83 252.5q0 104 -56 161.5t-158 57.5h-238z" />
<glyph unicode="&#xdf;" horiz-adv-x="1161" d="M285 1137q35 197 154 308t296 111q157 0 254.5 -93t97.5 -240q0 -25 -2.5 -55.5t-8.5 -67.5q-145 -8 -235 -75.5t-90 -164.5q0 -40 18.5 -76t62.5 -73l44 -39q107 -94 144 -159.5t37 -145.5q0 -172 -125.5 -284t-321.5 -112q-68 0 -131 12.5t-120 36.5l28 164 q59 -29 121.5 -44t125.5 -15q112 0 181.5 57t69.5 148q0 45 -21.5 84t-91.5 106l-46 43q-87 82 -117 137.5t-30 122.5q0 126 95.5 227t250.5 138q2 8 3 18t1 29q0 78 -51 123t-141 45q-120 0 -192 -68t-95 -202l-197 -1133h-167z" />
<glyph unicode="&#xe0;" horiz-adv-x="1129" d="M990 639l-112 -639h-166l30 170q-72 -100 -165.5 -149.5t-207.5 -49.5q-129 0 -211 87.5t-82 224.5q0 196 140.5 310t388.5 114h230l9 49q2 8 3 17.5t1 29.5q0 89 -65.5 138.5t-183.5 49.5q-81 0 -166 -23t-175 -69l29 170q94 39 183.5 58.5t173.5 19.5q178 0 271 -86 t93 -250q0 -33 -4.5 -77.5t-13.5 -94.5zM811 563h-166q-203 0 -300.5 -60.5t-97.5 -187.5q0 -88 49.5 -138t138.5 -50q135 0 235.5 107.5t133.5 287.5zM617 1638l189 -374h-139l-227 374h177z" />
<glyph unicode="&#xe1;" horiz-adv-x="1129" d="M990 639l-112 -639h-166l30 170q-72 -100 -165.5 -149.5t-207.5 -49.5q-129 0 -211 87.5t-82 224.5q0 196 140.5 310t388.5 114h230l9 49q2 8 3 17.5t1 29.5q0 89 -65.5 138.5t-183.5 49.5q-81 0 -166 -23t-175 -69l29 170q94 39 183.5 58.5t173.5 19.5q178 0 271 -86 t93 -250q0 -33 -4.5 -77.5t-13.5 -94.5zM811 563h-166q-203 0 -300.5 -60.5t-97.5 -187.5q0 -88 49.5 -138t138.5 -50q135 0 235.5 107.5t133.5 287.5zM873 1638h179l-359 -376h-139z" />
<glyph unicode="&#xe2;" horiz-adv-x="1129" d="M990 639l-112 -639h-166l30 170q-72 -100 -165.5 -149.5t-207.5 -49.5q-129 0 -211 87.5t-82 224.5q0 196 140.5 310t388.5 114h230l9 49q2 8 3 17.5t1 29.5q0 89 -65.5 138.5t-183.5 49.5q-81 0 -166 -23t-175 -69l29 170q94 39 183.5 58.5t173.5 19.5q178 0 271 -86 t93 -250q0 -33 -4.5 -77.5t-13.5 -94.5zM811 563h-166q-203 0 -300.5 -60.5t-97.5 -187.5q0 -88 49.5 -138t138.5 -50q135 0 235.5 107.5t133.5 287.5zM681 1638h133l155 -376h-125l-114 237l-211 -237h-125z" />
<glyph unicode="&#xe3;" horiz-adv-x="1129" d="M990 639l-112 -639h-166l30 170q-72 -100 -165.5 -149.5t-207.5 -49.5q-129 0 -211 87.5t-82 224.5q0 196 140.5 310t388.5 114h230l9 49q2 8 3 17.5t1 29.5q0 89 -65.5 138.5t-183.5 49.5q-81 0 -166 -23t-175 -69l29 170q94 39 183.5 58.5t173.5 19.5q178 0 271 -86 t93 -250q0 -33 -4.5 -77.5t-13.5 -94.5zM811 563h-166q-203 0 -300.5 -60.5t-97.5 -187.5q0 -88 49.5 -138t138.5 -50q135 0 235.5 107.5t133.5 287.5zM697 1370l-41 55q-12 16 -26 26t-29 13q-35 0 -58 -36.5t-38 -118.5h-113q27 137 85.5 209.5t139.5 72.5 q34 0 62.5 -15.5t52.5 -45.5l42 -55q11 -16 23.5 -25t29.5 -14q34 0 56 35.5t40 119.5h113q-26 -137 -84 -209.5t-141 -72.5q-34 0 -64 15.5t-50 45.5z" />
<glyph unicode="&#xe4;" horiz-adv-x="1129" d="M990 639l-112 -639h-166l30 170q-72 -100 -165.5 -149.5t-207.5 -49.5q-129 0 -211 87.5t-82 224.5q0 196 140.5 310t388.5 114h230l9 49q2 8 3 17.5t1 29.5q0 89 -65.5 138.5t-183.5 49.5q-81 0 -166 -23t-175 -69l29 170q94 39 183.5 58.5t173.5 19.5q178 0 271 -86 t93 -250q0 -33 -4.5 -77.5t-13.5 -94.5zM811 563h-166q-203 0 -300.5 -60.5t-97.5 -187.5q0 -88 49.5 -138t138.5 -50q135 0 235.5 107.5t133.5 287.5zM464 1552h185l-37 -202h-183zM816 1552h183l-35 -202h-183z" />
<glyph unicode="&#xe5;" horiz-adv-x="1129" d="M990 639l-112 -639h-166l30 170q-72 -100 -165.5 -149.5t-207.5 -49.5q-129 0 -211 87.5t-82 224.5q0 196 140.5 310t388.5 114h230l9 49q2 8 3 17.5t1 29.5q0 89 -65.5 138.5t-183.5 49.5q-81 0 -166 -23t-175 -69l29 170q94 39 183.5 58.5t173.5 19.5q178 0 271 -86 t93 -250q0 -33 -4.5 -77.5t-13.5 -94.5zM811 563h-166q-203 0 -300.5 -60.5t-97.5 -187.5q0 -88 49.5 -138t138.5 -50q135 0 235.5 107.5t133.5 287.5zM969 1524q0 -115 -71.5 -195t-175.5 -80t-175.5 80t-71.5 195q0 116 71.5 195t175.5 79t175.5 -79t71.5 -195zM859 1524 q0 64 -39.5 107.5t-97.5 43.5q-60 0 -98 -42.5t-38 -108.5t38 -109t98 -43t98.5 43t38.5 109z" />
<glyph unicode="&#xe6;" horiz-adv-x="1834" d="M1587 660q2 16 3.5 33t1.5 34q0 122 -64 193t-175 71q-124 0 -218.5 -86.5t-142.5 -245.5zM287 1069q94 39 183.5 58.5t173.5 19.5q129 0 212.5 -45t124.5 -137q77 90 178 136t220 46q171 0 272.5 -114t101.5 -306q0 -46 -5.5 -98.5t-16.5 -112.5h-771q-5 -38 -7 -60 t-2 -38q0 -139 77 -215t218 -76q108 0 204.5 27t178.5 79l-31 -182q-90 -40 -185 -60t-193 -20q-151 0 -253 57.5t-153 170.5q-91 -118 -190 -173t-218 -55q-157 0 -243.5 82t-86.5 230q0 196 140.5 310t388.5 114h230l9 49q2 8 3 17.5t1 29.5q0 89 -65.5 138.5t-183.5 49.5 q-81 0 -166 -23t-175 -69zM811 563h-166q-203 0 -300.5 -60.5t-97.5 -187.5q0 -88 49.5 -138t138.5 -50q135 0 235.5 107.5t133.5 287.5z" />
<glyph unicode="&#xe7;" horiz-adv-x="1013" d="M988 1077l-33 -182q-59 48 -126.5 72t-139.5 24q-79 0 -150.5 -31t-120.5 -88q-77 -87 -119.5 -204t-42.5 -242q0 -151 68 -225t207 -74q68 0 145 23t161 69l-31 -182q-72 -33 -148.5 -49.5t-156.5 -16.5q-200 0 -308 111.5t-108 318.5q0 174 56 320.5t167 263.5 q75 80 177 121t222 41q71 0 140 -17.5t141 -52.5zM536 0q33 -51 48 -94.5t15 -85.5q0 -100 -66 -157.5t-181 -57.5q-39 0 -77.5 6t-77.5 18l21 131q35 -16 70.5 -24t73.5 -8q54 0 86 30.5t32 83.5q0 29 -11.5 65t-39.5 93h107z" />
<glyph unicode="&#xe8;" horiz-adv-x="1134" d="M886 660q3 16 4.5 33t1.5 34q0 122 -64.5 193t-175.5 71q-123 0 -217.5 -86.5t-142.5 -245.5zM1030 516h-770q-5 -38 -7 -60t-2 -38q0 -139 77 -215t217 -76q108 0 204.5 27t179.5 79l-32 -182q-89 -40 -184 -60t-193 -20q-210 0 -322.5 111.5t-112.5 316.5 q0 175 56 325.5t165 268.5q70 74 167 114t206 40q171 0 272 -114t101 -306q0 -46 -5.5 -98.5t-16.5 -112.5zM627 1638l189 -374h-139l-227 374h177z" />
<glyph unicode="&#xe9;" horiz-adv-x="1134" d="M886 660q3 16 4.5 33t1.5 34q0 122 -64.5 193t-175.5 71q-123 0 -217.5 -86.5t-142.5 -245.5zM1030 516h-770q-5 -38 -7 -60t-2 -38q0 -139 77 -215t217 -76q108 0 204.5 27t179.5 79l-32 -182q-89 -40 -184 -60t-193 -20q-210 0 -322.5 111.5t-112.5 316.5 q0 175 56 325.5t165 268.5q70 74 167 114t206 40q171 0 272 -114t101 -306q0 -46 -5.5 -98.5t-16.5 -112.5zM883 1638h179l-359 -376h-139z" />
<glyph unicode="&#xea;" horiz-adv-x="1134" d="M886 660q3 16 4.5 33t1.5 34q0 122 -64.5 193t-175.5 71q-123 0 -217.5 -86.5t-142.5 -245.5zM1030 516h-770q-5 -38 -7 -60t-2 -38q0 -139 77 -215t217 -76q108 0 204.5 27t179.5 79l-32 -182q-89 -40 -184 -60t-193 -20q-210 0 -322.5 111.5t-112.5 316.5 q0 175 56 325.5t165 268.5q70 74 167 114t206 40q171 0 272 -114t101 -306q0 -46 -5.5 -98.5t-16.5 -112.5zM691 1638h133l155 -376h-125l-114 237l-211 -237h-125z" />
<glyph unicode="&#xeb;" horiz-adv-x="1134" d="M886 660q3 16 4.5 33t1.5 34q0 122 -64.5 193t-175.5 71q-123 0 -217.5 -86.5t-142.5 -245.5zM1030 516h-770q-5 -38 -7 -60t-2 -38q0 -139 77 -215t217 -76q108 0 204.5 27t179.5 79l-32 -182q-89 -40 -184 -60t-193 -20q-210 0 -322.5 111.5t-112.5 316.5 q0 175 56 325.5t165 268.5q70 74 167 114t206 40q171 0 272 -114t101 -306q0 -46 -5.5 -98.5t-16.5 -112.5zM474 1552h185l-37 -202h-183zM826 1552h183l-35 -202h-183z" />
<glyph unicode="&#xec;" horiz-adv-x="512" d="M262 1120h166l-198 -1120h-165zM295 1638l189 -374h-139l-227 374h177z" />
<glyph unicode="&#xed;" horiz-adv-x="512" d="M262 1120h166l-198 -1120h-165zM551 1638h179l-359 -376h-139z" />
<glyph unicode="&#xee;" horiz-adv-x="512" d="M262 1120h166l-198 -1120h-165zM359 1638h133l155 -376h-125l-114 237l-211 -237h-125z" />
<glyph unicode="&#xef;" horiz-adv-x="512" d="M262 1120h166l-198 -1120h-165zM142 1552h185l-37 -202h-183zM494 1552h183l-35 -202h-183z" />
<glyph unicode="&#xf0;" horiz-adv-x="1127" d="M914 1141q62 -102 93 -212.5t31 -228.5q0 -136 -35.5 -262.5t-103.5 -226.5q-75 -116 -185.5 -178t-240.5 -62q-178 0 -284 117.5t-106 312.5q0 120 37 238t105 219q79 116 188 178t234 62q18 0 44 -2.5t62 -7.5l-111 180l-316 -107l-29 94l294 97l-125 204h196l86 -145 l302 109l32 -95l-282 -98zM822 915q-39 17 -78 25t-79 8q-182 0 -296 -150.5t-114 -389.5q0 -138 59 -209.5t173 -71.5q164 0 273.5 161.5t109.5 405.5q0 68 -11.5 122t-36.5 99z" />
<glyph unicode="&#xf1;" horiz-adv-x="1168" d="M1027 676l-118 -676h-167l118 669q8 47 13 83t5 57q0 84 -48 131t-133 47q-134 0 -230 -98.5t-126 -267.5l-111 -621h-165l195 1120h166l-34 -176q70 97 167 150t204 53q133 0 206.5 -80t73.5 -225q0 -36 -4 -77t-12 -89zM730 1370l-41 55q-12 16 -26 26t-29 13 q-35 0 -58 -36.5t-38 -118.5h-113q27 137 85.5 209.5t139.5 72.5q34 0 62.5 -15.5t52.5 -45.5l42 -55q11 -16 23.5 -25t29.5 -14q34 0 56 35.5t40 119.5h113q-26 -137 -84 -209.5t-141 -72.5q-34 0 -64 15.5t-50 45.5z" />
<glyph unicode="&#xf2;" horiz-adv-x="1127" d="M468 -29q-177 0 -280 121.5t-103 331.5q0 122 35.5 248.5t91.5 212.5q90 134 199.5 198t248.5 64q172 0 277.5 -119t105.5 -311q0 -133 -35 -265t-92 -219q-88 -134 -198 -198t-250 -64zM256 430q0 -152 57.5 -227.5t173.5 -75.5q166 0 275.5 161.5t109.5 409.5 q0 145 -58.5 219t-171.5 74q-94 0 -167 -48.5t-130 -147.5q-43 -74 -66 -169t-23 -196zM631 1638l189 -374h-139l-227 374h177z" />
<glyph unicode="&#xf3;" horiz-adv-x="1127" d="M468 -29q-177 0 -280 121.5t-103 331.5q0 122 35.5 248.5t91.5 212.5q90 134 199.5 198t248.5 64q172 0 277.5 -119t105.5 -311q0 -133 -35 -265t-92 -219q-88 -134 -198 -198t-250 -64zM256 430q0 -152 57.5 -227.5t173.5 -75.5q166 0 275.5 161.5t109.5 409.5 q0 145 -58.5 219t-171.5 74q-94 0 -167 -48.5t-130 -147.5q-43 -74 -66 -169t-23 -196zM887 1638h179l-359 -376h-139z" />
<glyph unicode="&#xf4;" horiz-adv-x="1127" d="M468 -29q-177 0 -280 121.5t-103 331.5q0 122 35.5 248.5t91.5 212.5q90 134 199.5 198t248.5 64q172 0 277.5 -119t105.5 -311q0 -133 -35 -265t-92 -219q-88 -134 -198 -198t-250 -64zM256 430q0 -152 57.5 -227.5t173.5 -75.5q166 0 275.5 161.5t109.5 409.5 q0 145 -58.5 219t-171.5 74q-94 0 -167 -48.5t-130 -147.5q-43 -74 -66 -169t-23 -196zM695 1638h133l155 -376h-125l-114 237l-211 -237h-125z" />
<glyph unicode="&#xf5;" horiz-adv-x="1127" d="M468 -29q-177 0 -280 121.5t-103 331.5q0 122 35.5 248.5t91.5 212.5q90 134 199.5 198t248.5 64q172 0 277.5 -119t105.5 -311q0 -133 -35 -265t-92 -219q-88 -134 -198 -198t-250 -64zM256 430q0 -152 57.5 -227.5t173.5 -75.5q166 0 275.5 161.5t109.5 409.5 q0 145 -58.5 219t-171.5 74q-94 0 -167 -48.5t-130 -147.5q-43 -74 -66 -169t-23 -196zM711 1370l-41 55q-12 16 -26 26t-29 13q-35 0 -58 -36.5t-38 -118.5h-113q27 137 85.5 209.5t139.5 72.5q34 0 62.5 -15.5t52.5 -45.5l42 -55q11 -16 23.5 -25t29.5 -14q34 0 56 35.5 t40 119.5h113q-26 -137 -84 -209.5t-141 -72.5q-34 0 -64 15.5t-50 45.5z" />
<glyph unicode="&#xf6;" horiz-adv-x="1127" d="M468 -29q-177 0 -280 121.5t-103 331.5q0 122 35.5 248.5t91.5 212.5q90 134 199.5 198t248.5 64q172 0 277.5 -119t105.5 -311q0 -133 -35 -265t-92 -219q-88 -134 -198 -198t-250 -64zM256 430q0 -152 57.5 -227.5t173.5 -75.5q166 0 275.5 161.5t109.5 409.5 q0 145 -58.5 219t-171.5 74q-94 0 -167 -48.5t-130 -147.5q-43 -74 -66 -169t-23 -196zM478 1552h185l-37 -202h-183zM830 1552h183l-35 -202h-183z" />
<glyph unicode="&#xf7;" horiz-adv-x="1544" d="M662 1135h221v-246h-221v246zM662 395h221v-245h-221v245zM195 727h1154v-170h-1154v170z" />
<glyph unicode="&#xf8;" horiz-adv-x="1127" d="M811 922q-33 35 -75 52t-94 17q-168 0 -276 -160.5t-108 -410.5q0 -47 1.5 -67.5t6.5 -37.5zM139 172q-27 49 -40.5 112t-13.5 138q0 122 35.5 249.5t91.5 213.5q89 134 198 198t250 64q78 0 144.5 -26t118.5 -77l146 164l78 -86l-155 -172q25 -55 38 -117.5t13 -130.5 q0 -124 -35.5 -253.5t-91.5 -215.5q-87 -134 -196.5 -198t-251.5 -64q-78 0 -144.5 26.5t-117.5 78.5l-155 -170l-77 84zM865 809l-548 -610q35 -37 76 -54.5t94 -17.5q170 0 277.5 163.5t107.5 426.5q0 39 -2 58t-5 34z" />
<glyph unicode="&#xf9;" horiz-adv-x="1168" d="M123 444l118 676h167l-118 -669q-9 -49 -13 -84t-4 -58q0 -85 46.5 -131.5t132.5 -46.5q133 0 230 100t127 269l111 620h165l-195 -1120h-166l34 176q-70 -98 -167 -151.5t-206 -53.5q-132 0 -206 80.5t-74 224.5q0 30 4.5 75t13.5 93zM622 1638l189 -374h-139l-227 374 h177z" />
<glyph unicode="&#xfa;" horiz-adv-x="1168" d="M123 444l118 676h167l-118 -669q-9 -49 -13 -84t-4 -58q0 -85 46.5 -131.5t132.5 -46.5q133 0 230 100t127 269l111 620h165l-195 -1120h-166l34 176q-70 -98 -167 -151.5t-206 -53.5q-132 0 -206 80.5t-74 224.5q0 30 4.5 75t13.5 93zM878 1638h179l-359 -376h-139z" />
<glyph unicode="&#xfb;" horiz-adv-x="1168" d="M123 444l118 676h167l-118 -669q-9 -49 -13 -84t-4 -58q0 -85 46.5 -131.5t132.5 -46.5q133 0 230 100t127 269l111 620h165l-195 -1120h-166l34 176q-70 -98 -167 -151.5t-206 -53.5q-132 0 -206 80.5t-74 224.5q0 30 4.5 75t13.5 93zM686 1638h133l155 -376h-125 l-114 237l-211 -237h-125z" />
<glyph unicode="&#xfc;" horiz-adv-x="1168" d="M123 444l118 676h167l-118 -669q-9 -49 -13 -84t-4 -58q0 -85 46.5 -131.5t132.5 -46.5q133 0 230 100t127 269l111 620h165l-195 -1120h-166l34 176q-70 -98 -167 -151.5t-206 -53.5q-132 0 -206 80.5t-74 224.5q0 30 4.5 75t13.5 93zM469 1552h185l-37 -202h-183z M821 1552h183l-35 -202h-183z" />
<glyph unicode="&#xfd;" horiz-adv-x="1090" d="M457 -104q-115 -215 -187.5 -268.5t-184.5 -53.5h-131l28 154h95q70 0 118.5 42t108.5 164l52 107l-224 1079h176l167 -858l463 858h174zM868 1638h179l-359 -376h-139z" />
<glyph unicode="&#xfe;" horiz-adv-x="1170" d="M914 690q0 147 -57.5 225t-165.5 78q-74 0 -141 -42t-119 -122q-51 -79 -81.5 -191t-30.5 -222q0 -140 57.5 -215.5t163.5 -75.5q78 0 145 41t115 119q51 82 82.5 193t31.5 212zM401 950q67 97 157.5 147t201.5 50q154 0 239.5 -112.5t85.5 -315.5q0 -166 -53 -316.5 t-153 -269.5q-66 -79 -150 -120.5t-176 -41.5q-107 0 -180 49.5t-109 147.5l-104 -594h-165l343 1982h165z" />
<glyph unicode="&#xff;" horiz-adv-x="1090" d="M457 -104q-115 -215 -187.5 -268.5t-184.5 -53.5h-131l28 154h95q70 0 118.5 42t108.5 164l52 107l-224 1079h176l167 -858l463 858h174zM459 1552h185l-37 -202h-183zM811 1552h183l-35 -202h-183z" />
<glyph unicode="&#x131;" horiz-adv-x="512" d="M262 1120h166l-198 -1120h-165z" />
<glyph unicode="&#x152;" horiz-adv-x="1971" d="M1089 1323h-108q-149 0 -266 -38t-195 -111q-120 -110 -182 -260.5t-62 -331.5q0 -203 114 -307.5t336 -104.5h44h116zM1966 1493l-29 -170h-665l-80 -442h640l-29 -170h-640l-94 -541h684l-29 -170h-982q-145 0 -225 15.5t-150 50.5q-141 70 -211.5 199t-70.5 317 q0 209 83 395t238 321q111 98 268.5 146.5t359.5 48.5h932z" />
<glyph unicode="&#x153;" horiz-adv-x="1894" d="M1792 516h-770q-4 -27 -6.5 -52t-2.5 -46q0 -139 76.5 -215t217.5 -76q108 0 205.5 27t179.5 79l-33 -182q-89 -39 -183.5 -59.5t-193.5 -20.5q-144 0 -247.5 55t-146.5 154q-91 -105 -194.5 -157t-225.5 -52q-172 0 -277.5 119t-105.5 311q0 137 34 266.5t93 217.5 q90 134 199.5 198t248.5 64q117 0 206.5 -58.5t137.5 -166.5q90 112 198.5 168.5t236.5 56.5q172 0 273.5 -114t101.5 -306q0 -46 -5.5 -98.5t-16.5 -112.5zM1648 660q3 16 4 33t1 34q0 122 -64 193t-175 71q-124 0 -218 -86.5t-144 -245.5zM256 430q0 -152 57.5 -227.5 t173.5 -75.5q166 0 275.5 160t109.5 409q0 147 -58 221t-172 74q-94 0 -167 -48.5t-130 -147.5q-43 -74 -66 -169t-23 -196z" />
<glyph unicode="&#x178;" horiz-adv-x="1125" d="M116 1493h195l251 -614l479 614h205l-610 -782l-124 -711h-182l124 711zM480 1870h183l-37 -203h-181zM832 1870h182l-35 -203h-182z" />
<glyph unicode="&#x2c6;" horiz-adv-x="921" d="M591 1638h133l155 -376h-125l-114 237l-211 -237h-125z" />
<glyph unicode="&#x2da;" horiz-adv-x="921" d="M879 1524q0 -115 -71.5 -195t-175.5 -80t-175.5 80t-71.5 195q0 116 71.5 195t175.5 79t175.5 -79t71.5 -195zM769 1524q0 64 -39.5 107.5t-97.5 43.5q-60 0 -98 -42.5t-38 -108.5t38 -109t98 -43t98.5 43t38.5 109z" />
<glyph unicode="&#x2dc;" horiz-adv-x="921" d="M607 1370l-41 55q-12 16 -26 26t-29 13q-35 0 -58 -36.5t-38 -118.5h-113q27 137 85.5 209.5t139.5 72.5q34 0 62.5 -15.5t52.5 -45.5l42 -55q11 -16 23.5 -25t29.5 -14q34 0 56 35.5t40 119.5h113q-26 -137 -84 -209.5t-141 -72.5q-34 0 -64 15.5t-50 45.5z" />
<glyph unicode="&#x2000;" horiz-adv-x="950" />
<glyph unicode="&#x2001;" horiz-adv-x="1901" />
<glyph unicode="&#x2002;" horiz-adv-x="950" />
<glyph unicode="&#x2003;" horiz-adv-x="1901" />
<glyph unicode="&#x2004;" horiz-adv-x="633" />
<glyph unicode="&#x2005;" horiz-adv-x="475" />
<glyph unicode="&#x2006;" horiz-adv-x="316" />
<glyph unicode="&#x2007;" horiz-adv-x="316" />
<glyph unicode="&#x2008;" horiz-adv-x="237" />
<glyph unicode="&#x2009;" horiz-adv-x="380" />
<glyph unicode="&#x200a;" horiz-adv-x="105" />
<glyph unicode="&#x2010;" horiz-adv-x="665" d="M112 643h486l-28 -164h-487z" />
<glyph unicode="&#x2011;" horiz-adv-x="665" d="M112 643h486l-28 -164h-487z" />
<glyph unicode="&#x2012;" horiz-adv-x="665" d="M112 643h486l-28 -164h-487z" />
<glyph unicode="&#x2013;" horiz-adv-x="921" d="M103 633h741l-25 -144h-742z" />
<glyph unicode="&#x2014;" horiz-adv-x="1843" d="M103 633h1663l-25 -144h-1664z" />
<glyph unicode="&#x2018;" horiz-adv-x="585" d="M431 1001h-190l32 173l202 319h116l-128 -319z" />
<glyph unicode="&#x2019;" horiz-adv-x="585" d="M410 1493h189l-29 -172l-205 -320h-117l130 320z" />
<glyph unicode="&#x201a;" horiz-adv-x="585" d="M166 254h190l-32 -172l-202 -320h-117l130 320z" />
<glyph unicode="&#x201c;" horiz-adv-x="954" d="M431 1001h-190l32 173l202 319h116l-128 -319zM800 1001h-190l32 173l202 319h116l-128 -319z" />
<glyph unicode="&#x201d;" horiz-adv-x="954" d="M410 1493h189l-31 -172l-203 -320h-117l130 320zM778 1493h190l-32 -172l-202 -320h-117l129 320z" />
<glyph unicode="&#x201e;" horiz-adv-x="954" d="M166 254h190l-32 -172l-202 -320h-117l130 320zM535 254h189l-31 -172l-203 -320h-116l129 320z" />
<glyph unicode="&#x2022;" horiz-adv-x="1087" d="M276 762q0 124 78 209.5t191 85.5q112 0 189 -85.5t77 -209.5q0 -125 -77.5 -211t-189.5 -86q-113 0 -190.5 86t-77.5 211z" />
<glyph unicode="&#x2026;" horiz-adv-x="1843" d="M164 254h190l-44 -254h-190zM1393 254h190l-44 -254h-190zM778 254h190l-45 -254h-189z" />
<glyph unicode="&#x202f;" horiz-adv-x="380" />
<glyph unicode="&#x2039;" horiz-adv-x="737" d="M623 1059l-33 -201l-321 -270l227 -266l-33 -181l-349 418l15 82z" />
<glyph unicode="&#x203a;" horiz-adv-x="737" d="M114 141l35 201l321 270l-227 267l31 180l349 -418l-13 -82z" />
<glyph unicode="&#x2044;" horiz-adv-x="307" d="M628 1520h161l-1109 -1549h-163z" />
<glyph unicode="&#x205f;" horiz-adv-x="475" />
<glyph unicode="&#x2074;" horiz-adv-x="738" d="M542 1378l-354 -415h280zM542 1503h149l-95 -540h123l-19 -109h-123l-33 -186h-127l33 186h-374l22 131z" />
<glyph unicode="&#x20ac;" d="M1119 1378l-30 -213q-75 101 -150 148t-161 47q-129 0 -226.5 -97.5t-160.5 -289.5h468l-48 -123h-454q-11 -50 -18 -101t-11 -106h400l-49 -123h-354q8 -195 79.5 -292t207.5 -97q98 0 184.5 43t178.5 139l-35 -239q-85 -51 -174 -77t-176 -26q-201 0 -319.5 146 t-127.5 403h-178l49 123h131q4 55 11.5 106.5t17.5 100.5h-156l50 123h136q88 276 232 411.5t349 135.5q93 0 176 -35.5t158 -106.5z" />
<glyph unicode="&#x2122;" horiz-adv-x="1843" d="M988 1493l157 -256l147 256h153v-578h-101v484l-176 -303h-49l-183 303v-484h-103v578h155zM732 1493v-94h-183v-484h-103v484h-180v94h466z" />
<glyph unicode="&#x25fc;" horiz-adv-x="1120" d="M0 1120h1120v-1120h-1120v1120z" />
<glyph horiz-adv-x="0" d="M-556 1497h183l-37 -203h-181zM-204 1497h182l-35 -203h-182z" />
<glyph horiz-adv-x="0" d="M-225 1526h186l-276 -264h-142z" />
<glyph horiz-adv-x="0" d="M-310 1337l-31 25l-1 1q-39 32 -73 32q-31 0 -55 -25.5t-40 -75.5h-113q32 109 87 164t132 55q31 0 58.5 -11t60.5 -36l29 -26q16 -14 33 -20.5t35 -6.5q35 0 60.5 27t35.5 73h113q-30 -109 -86.5 -164t-138.5 -55q-28 0 -53 10.5t-53 32.5z" />
<glyph horiz-adv-x="0" d="M-339 1526l133 -264h-126l-171 264h164z" />
<glyph horiz-adv-x="0" d="M-382 1528h194l142 -266h-121l-126 178l-189 -178h-135z" />
</font>
</defs>
</svg>
